Subcategories
Please register here if you want to download anything!

If domain in your address bar is different from the list below
PLEASE LEAVE THAT SITE IMMEDIATELY
❗IT'S A DANGEROUS FAKE❗



Spicy Magazines for Men! ;-)

Frans Brüggen, Concerto Amsterdam - Telemann: Musique de Table [4CDs] (2008)

Posted By: ArlegZ
Frans Brüggen, Concerto Amsterdam - Telemann: Musique de Table [4CDs] (2008)

Frans Brüggen, Concerto Amsterdam - Telemann: Musique de Table (2008)
EAC | FLAC | Image (Cue & Log) ~ 1,27 Gb | Total time: 252:55 | Scans included
Classical | Label: Warner Classics | # 2564694572 | Recorded: 1964, 1965

Inaugurated in 1958, Das Alte Werk quickly gained a reputation for historically informed, high-quality recordings. As the field of early music spread wider and wider and new paths were constantly broken, the imprint rapidly became the touchstone by which other labels were judged, not least for its epoch-making complete recording of Bach's sacred cantatas. Originally recorded and released in the middle 1960s, this newly-reissued 4CD, groundbreaking set of Telemann's Musique de Table (Tafelmusik) features the late Franz Bruggen and the Concerto Amsterdam.

Performer:
Concerto Amsterdam
Frans Brüggen, conductor

Track List:
CD1:
Production I: Ouverture in E minor:
01. Lentement - Vite - Lentement
02. Réjouissance
03. Rondeau
04. Loure
05. Passepied
06. Air, Un Peu Vivement
07. Gigue
Quatuor in G major:
08. Largo - Allegro - Largo
09. Vivace - Moderato - Vivace
10. Grave
11. Vivace
Concert in A major:
12. Largo
13. Allegro
14. Gratioso
15. Allegro
CD2:
Trio in E flat major:
01. Affettuoso
02. Vivace
03. Grave
04. Allegro
Solo in B minor:
05. Cantabile
06. Allegro
07. Dolce
08. Allegro
Conclusion in E minor:
09. Allegro - Largo - Allegro
Production II: Ouverture et Suite in D major:
10. Lentement - Vite - Lentement
11. Air I (Tempo Giusto)
12. Air II (Vivace)
13. Air III (Presto)
14. Air IV (Allegro)
CD3:
Ouverture et Suite in D major: Quatuor in D minor:
01. Andante
02. Vivace
03. Largo
04. Allegro
Concert in F major:
05. Allegro
06. Largo
07. Vivace
Trio in E minor:
08. Affettuoso
09. Allegro
10. Dolce
11. Vivace
Solo in A major:
12. Andante
13. Vivace
14. Cantabile
15. Allegro - Adagio - Allegro
Conclusion in D major:
16. Allegro
17. Adagio
18. Allegro
CD4:
Production III. Ouverture et Suite in B flat major:
01. Lentement - Presto - Lentement
02. Bergerie (Un Peu Vivement)
03. Allegresse (Vite)
04. Postillons
05. Flaterie
06. Badinage (Très Vite)
07. Menuet
Quator in E minor:
08. Adagio
09. Allegro
10. Dolce
11. Allegro
Concert in E flat major:
12. Maestoso
13. Allegro
14. Grave
15. Vivace
Trio in D major:
16. Andante
17. Allegro
18. Grave - Largo - Grave
19. Vivace
Solo in G minor:
20. Largo
21. Presto - Tempo Giusto
22. Andante
23. Allegro
Conclusion in B flat major:
24. Furioso


Exact Audio Copy V1.3 from 2. September 2016

EAC extraction logfile from 25. October 2018, 15:57

Frans Brüggen, Concerto Amsterdam / Telemann - Musique de table CD1

Used drive : HL-DT-STDVDRAM GH24NS95 Adapter: 1 ID: 0

Read mode : Secure
Utilize accurate stream : Yes
Defeat audio cache : Yes
Make use of C2 pointers : No

Read offset correction : 6
Overread into Lead-In and Lead-Out : No
Fill up missing offset samples with silence : Yes
Delete leading and trailing silent blocks : No
Null samples used in CRC calculations : Yes
Used interface : Native Win32 interface for Win NT & 2000

Used output format : User Defined Encoder
Selected bitrate : 128 kBit/s
Quality : High
Add ID3 tag : No
Command line compressor : C:\Program Files\Exact Audio Copy\Flac\flac.exe
Additional command line options : -V -8 -T "Date=%year%" -T "Genre=%genre%" %source%


TOC of the extracted CD

Track | Start | Length | Start sector | End sector
––––––––––––––––––––––––––––-
1 | 0:00.00 | 6:25.08 | 0 | 28882
2 | 6:25.08 | 3:51.60 | 28883 | 46267
3 | 10:16.68 | 2:12.35 | 46268 | 56202
4 | 12:29.28 | 3:18.34 | 56203 | 71086
5 | 15:47.62 | 2:50.27 | 71087 | 83863
6 | 18:38.14 | 5:29.62 | 83864 | 108600
7 | 24:08.01 | 2:24.68 | 108601 | 119468
8 | 26:32.69 | 3:28.02 | 119469 | 135070
9 | 30:00.71 | 7:08.02 | 135071 | 167172
10 | 37:08.73 | 0:32.69 | 167173 | 169641
11 | 37:41.67 | 3:21.70 | 169642 | 184786
12 | 41:03.62 | 5:06.35 | 184787 | 207771
13 | 46:10.22 | 5:55.47 | 207772 | 234443
14 | 52:05.69 | 3:38.00 | 234444 | 250793
15 | 55:43.69 | 5:48.06 | 250794 | 276899


Range status and errors

Selected range

Filename C:\Program Files\Exact Audio Copy\Flac\Telemann - Musique de table CD1.wav

Peak level 100.0 %
Extraction speed 7.9 X
Range quality 100.0 %
Test CRC 255F2F92
Copy CRC 255F2F92
Copy OK

No errors occurred

End of status report

==== Log checksum 6970F7E8BBD86E720115912C8EBB850B5BCC95DC7587EB23B6BB1F55BBC8A7C7 ====


Exact Audio Copy V1.3 from 2. September 2016

EAC extraction logfile from 25. October 2018, 16:16

Frans Brüggen, Concerto Amsterdam / Telemann - Musique de table CD2

Used drive : HL-DT-STDVDRAM GH24NS95 Adapter: 1 ID: 0

Read mode : Secure
Utilize accurate stream : Yes
Defeat audio cache : Yes
Make use of C2 pointers : No

Read offset correction : 6
Overread into Lead-In and Lead-Out : No
Fill up missing offset samples with silence : Yes
Delete leading and trailing silent blocks : No
Null samples used in CRC calculations : Yes
Used interface : Native Win32 interface for Win NT & 2000

Used output format : User Defined Encoder
Selected bitrate : 128 kBit/s
Quality : High
Add ID3 tag : No
Command line compressor : C:\Program Files\Exact Audio Copy\Flac\flac.exe
Additional command line options : -V -8 -T "Date=%year%" -T "Genre=%genre%" %source%


TOC of the extracted CD

Track | Start | Length | Start sector | End sector
––––––––––––––––––––––––––––-
1 | 0:00.00 | 3:42.44 | 0 | 16693
2 | 3:42.44 | 4:02.42 | 16694 | 34885
3 | 7:45.11 | 3:13.14 | 34886 | 49374
4 | 10:58.25 | 4:15.52 | 49375 | 68551
5 | 15:14.02 | 3:29.22 | 68552 | 84248
6 | 18:43.24 | 2:26.60 | 84249 | 95258
7 | 21:10.09 | 3:39.43 | 95259 | 111726
8 | 24:49.52 | 4:00.69 | 111727 | 129795
9 | 28:50.46 | 5:09.16 | 129796 | 152986
10 | 33:59.62 | 6:59.37 | 152987 | 184448
11 | 40:59.24 | 6:13.34 | 184449 | 212457
12 | 47:12.58 | 2:43.00 | 212458 | 224682
13 | 49:55.58 | 5:41.72 | 224683 | 250329
14 | 55:37.55 | 3:36.20 | 250330 | 266549


Range status and errors

Selected range

Filename C:\Program Files\Exact Audio Copy\Flac\Telemann - Musique de table CD2.wav

Peak level 100.0 %
Extraction speed 7.8 X
Range quality 100.0 %
Test CRC A99B1A41
Copy CRC A99B1A41
Copy OK

No errors occurred

End of status report

==== Log checksum D17DF43A480CD07BCFA5D5FCCD3DD56CEDE0D31F1FA35624A8F2F87CA06F4876 ====


Exact Audio Copy V1.3 from 2. September 2016

EAC extraction logfile from 25. October 2018, 16:36

Frans Brüggen, Concerto Amsterdam / Telemann - Musique de table CD3

Used drive : HL-DT-STDVDRAM GH24NS95 Adapter: 1 ID: 0

Read mode : Secure
Utilize accurate stream : Yes
Defeat audio cache : Yes
Make use of C2 pointers : No

Read offset correction : 6
Overread into Lead-In and Lead-Out : No
Fill up missing offset samples with silence : Yes
Delete leading and trailing silent blocks : No
Null samples used in CRC calculations : Yes
Used interface : Native Win32 interface for Win NT & 2000

Used output format : User Defined Encoder
Selected bitrate : 128 kBit/s
Quality : High
Add ID3 tag : No
Command line compressor : C:\Program Files\Exact Audio Copy\Flac\flac.exe
Additional command line options : -V -8 -T "Date=%year%" -T "Genre=%genre%" %source%


TOC of the extracted CD

Track | Start | Length | Start sector | End sector
––––––––––––––––––––––––––––-
1 | 0:00.00 | 3:29.71 | 0 | 15745
2 | 3:29.71 | 3:55.19 | 15746 | 33389
3 | 7:25.15 | 3:36.39 | 33390 | 49628
4 | 11:01.54 | 5:05.08 | 49629 | 72511
5 | 16:06.62 | 5:47.62 | 72512 | 98598
6 | 21:54.49 | 5:27.67 | 98599 | 123190
7 | 27:22.41 | 3:01.28 | 123191 | 136793
8 | 30:23.69 | 3:06.56 | 136794 | 150799
9 | 33:30.50 | 3:00.02 | 150800 | 164301
10 | 36:30.52 | 3:03.26 | 164302 | 178052
11 | 39:34.03 | 3:58.37 | 178053 | 195939
12 | 43:32.40 | 2:09.12 | 195940 | 205626
13 | 45:41.52 | 2:39.56 | 205627 | 217607
14 | 48:21.33 | 3:05.20 | 217608 | 231502
15 | 51:26.53 | 3:15.54 | 231503 | 246181
16 | 54:42.32 | 2:39.02 | 246182 | 258108
17 | 57:21.34 | 1:14.68 | 258109 | 263726
18 | 58:36.27 | 2:45.48 | 263727 | 276149


Range status and errors

Selected range

Filename C:\Program Files\Exact Audio Copy\Flac\Telemann - Musique de table CD3.wav

Peak level 62.8 %
Extraction speed 7.9 X
Range quality 100.0 %
Test CRC 069C26E3
Copy CRC 069C26E3
Copy OK

No errors occurred

End of status report

==== Log checksum AB6BC54C99C6CC616672E5ADD49BCAB4CE0005126719E558E3B5E54261046596 ====


Exact Audio Copy V1.3 from 2. September 2016

EAC extraction logfile from 25. October 2018, 16:59

Frans Brüggen, Concerto Amsterdam / Telemann - Musique de table CD4

Used drive : HL-DT-STDVDRAM GH24NS95 Adapter: 1 ID: 0

Read mode : Secure
Utilize accurate stream : Yes
Defeat audio cache : Yes
Make use of C2 pointers : No

Read offset correction : 6
Overread into Lead-In and Lead-Out : No
Fill up missing offset samples with silence : Yes
Delete leading and trailing silent blocks : No
Null samples used in CRC calculations : Yes
Used interface : Native Win32 interface for Win NT & 2000

Used output format : User Defined Encoder
Selected bitrate : 128 kBit/s
Quality : High
Add ID3 tag : No
Command line compressor : C:\Program Files\Exact Audio Copy\Flac\flac.exe
Additional command line options : -V -8 -T "Date=%year%" -T "Genre=%genre%" %source%


TOC of the extracted CD

Track | Start | Length | Start sector | End sector
––––––––––––––––––––––––––––-
1 | 0:00.00 | 6:01.19 | 0 | 27093
2 | 6:01.19 | 2:21.16 | 27094 | 37684
3 | 8:22.35 | 2:26.09 | 37685 | 48643
4 | 10:48.44 | 2:13.56 | 48644 | 58674
5 | 13:02.25 | 2:53.59 | 58675 | 71708
6 | 15:56.09 | 2:42.01 | 71709 | 83859
7 | 18:38.10 | 3:44.37 | 83860 | 100696
8 | 22:22.47 | 2:06.66 | 100697 | 110212
9 | 24:29.38 | 2:04.11 | 110213 | 119523
10 | 26:33.49 | 2:43.59 | 119524 | 131807
11 | 29:17.33 | 2:19.07 | 131808 | 142239
12 | 31:36.40 | 3:02.53 | 142240 | 155942
13 | 34:39.18 | 4:57.62 | 155943 | 178279
14 | 39:37.05 | 3:04.41 | 178280 | 192120
15 | 42:41.46 | 5:21.19 | 192121 | 216214
16 | 48:02.65 | 2:38.50 | 216215 | 228114
17 | 50:41.40 | 2:06.31 | 228115 | 237595
18 | 52:47.71 | 2:26.08 | 237596 | 248553
19 | 55:14.04 | 2:09.41 | 248554 | 258269
20 | 57:23.45 | 2:29.31 | 258270 | 269475
21 | 59:53.01 | 4:37.42 | 269476 | 290292
22 | 64:30.43 | 1:14.39 | 290293 | 295881
23 | 65:45.07 | 3:16.41 | 295882 | 310622
24 | 69:01.48 | 1:59.30 | 310623 | 319577


Range status and errors

Selected range

Filename C:\Program Files\Exact Audio Copy\Flac\Telemann - Musique de table CD4.wav

Peak level 97.7 %
Extraction speed 8.1 X
Range quality 100.0 %
Test CRC 1182C49E
Copy CRC 1182C49E
Copy OK

No errors occurred

End of status report

==== Log checksum 0AD39CF826E521E5FFBE5DE3DA53BB56677F05F6D14A42DB3442F98CE9B2BC99 ====

Frans Brüggen, Concerto Amsterdam - Telemann: Musique de Table [4CDs] (2008)

Thanks to the original releaser