Subcategories

Foreigner - Can't Slow Down... When It's Live! (2010)

Posted By: popsakov
Foreigner - Can't Slow Down... When It's Live! (2010)

Foreigner - Can't Slow Down… When It's Live! (2010)
2CD | EAC Rip | FLAC (Img) + Cue + Log ~ 704 Mb | MP3 CBR320 ~ 223 Mb
Full Scans ~ 50 Mb | 00:42:43 + 00:49:56 | RAR 5% Recovery
Hard Rock, Arena Rock, Classic Rock | Ear Music #0205685ERE

Can't Slow Down … When It's Live! is a live album by rock band Foreigner, released in 2010. It was recorded on March 16 the same year Nashville, Tennessee at the Ryman Auditorium except for the track "Can't Slow Down" recorded in Seebronn, Germany, on July 31, 2010. In 2009 Foreigner released Can't Slow Down, their first album of original music in fifteen years, followed by a successful tour of North America and Europe. Music from that tour has now been put into a new two-CD live album of both Foreigner classics and new songs called Can't Slow Down…When It's Live! "Can’t Slow Down is about fresh starts,” said founding guitarist Mick Jones. “For the band, it was a chance to step out from the shadow of the past and establish its own identity. Personally, the album helped me reclaim my confidence as an artist and rediscover the fun of making music again.”

***************

Foreigner - Can't Slow Down... When It's Live! (2010)

Track List CD1:

01. Double Vision [03:46]
02. Head Games [05:39]
03. Cold As Ice [05:44]
04. In Pieces [04:27]
05. Blue Morning, Blue Day [03:21]
06. Waiting For A Girl Like You [05:35]
07. When It Comes To Love [03:51]
08. Dirty White Boy [03:59]
09. Starrider [06:21]

Exact Audio Copy V0.99 prebeta 5 from 4. May 2009

EAC extraction logfile from 27. November 2010, 17:03

Foreigner / Can't Slow Down… When It's Live! CD1

Used drive : ASUS DRW-20B1ST Adapter: 1 ID: 0

Read mode : Secure
Utilize accurate stream : Yes
Defeat audio cache : Yes
Make use of C2 pointers : No

Read offset correction : 6
Overread into Lead-In and Lead-Out : No
Fill up missing offset samples with silence : Yes
Delete leading and trailing silent blocks : No
Null samples used in CRC calculations : Yes
Used interface : Native Win32 interface for Win NT & 2000

Used output format : User Defined Encoder
Selected bitrate : 1024 kBit/s
Quality : High
Add ID3 tag : No
Command line compressor : C:\Program Files\Exact Audio Copy\FLAC\FLAC.EXE
Additional command line options : -8 -V -T "ARTIST=%a" -T "TITLE=%t" -T "ALBUM=%g" -T "DATE=%y" -T "TRACKNUMBER=%n" -T "GENRE=%m" -T "COMMENT=%e" %s -o %d


TOC of the extracted CD

Track | Start | Length | Start sector | End sector
––––––––––––––––––––––––––––-
1 | 0:00.00 | 3:46.27 | 0 | 16976
2 | 3:46.27 | 5:39.02 | 16977 | 42403
3 | 9:25.29 | 5:44.20 | 42404 | 68223
4 | 15:09.49 | 4:27.19 | 68224 | 88267
5 | 19:36.68 | 3:20.14 | 88268 | 103281
6 | 22:57.07 | 5:35.00 | 103282 | 128406
7 | 28:32.07 | 3:51.01 | 128407 | 145732
8 | 32:23.08 | 3:58.73 | 145733 | 163655
9 | 36:22.06 | 6:20.72 | 163656 | 192227


Range status and errors

Selected range

Filename F:\Foreigner\Foreigner - Can't Slow Down… When It's Live! CD1.wav

Peak level 100.0 %
Range quality 100.0 %
Test CRC 98CE33FF
Copy CRC 98CE33FF
Copy OK

No errors occurred


AccurateRip summary

Track 1 not present in database
Track 2 not present in database
Track 3 not present in database
Track 4 not present in database
Track 5 not present in database
Track 6 not present in database
Track 7 not present in database
Track 8 not present in database
Track 9 not present in database

None of the tracks are present in the AccurateRip database

End of status report

[CUETools log; Date: 14.02.2020 13:14:32; Version: 2.1.6]
[CTDB TOCID: kgaqW_JXLB.0N8CrTt6sI5UvlVQ-] found.
Track | CTDB Status
1 | (47/48) Accurately ripped
2 | (48/48) Accurately ripped
3 | (48/48) Accurately ripped
4 | (45/48) Accurately ripped, or (3/48) differs in 23 samples @01:52:53
5 | (47/48) Accurately ripped
6 | (48/48) Accurately ripped
7 | (48/48) Accurately ripped
8 | (48/48) Accurately ripped
9 | (48/48) Accurately ripped
[AccurateRip ID: 000e7bbb-006a1ff0-7f0a0309] found.
Track [ CRC | V2 ] Status
01 [d456f951|d1cf3446] (02+15/20) Accurately ripped
02 [de59d19f|bb962be0] (02+15/20) Accurately ripped
03 [ba35d437|11621b42] (02+15/20) Accurately ripped
04 [c2882702|70a2a9b8] (02+15/20) Accurately ripped
05 [2d6ceb5c|80793bb4] (02+15/20) Accurately ripped
06 [ecec4ae6|f23be2ba] (02+15/20) Accurately ripped
07 [c48d8e58|f3f4909d] (02+15/20) Accurately ripped
08 [fe210a6d|03b39dec] (02+15/20) Accurately ripped
09 [e571fcc9|1efbcb55] (02+15/20) Accurately ripped
Offsetted by -36:
01 [31b672c7] (00/20) No match (V2 was not tested)
02 [a5508089] (00/20) No match (V2 was not tested)
03 [bf4480db] (00/20) No match (V2 was not tested)
04 [cbf4f768] (00/20) No match (V2 was not tested)
05 [2699492b] (00/20) No match (V2 was not tested)
06 [ffd34473] (00/20) No match (V2 was not tested)
07 [9727ad1b] (00/20) No match (V2 was not tested)
08 [8a4c3725] (00/20) No match (V2 was not tested)
09 [858a41bc] (00/20) No match (V2 was not tested)

Track Peak [ CRC32 ] [W/O NULL] [ LOG ]
– 100,0 [98CE33FF] [FF415C4A] CRC32
01 100,0 [8C40F118] [E6EF3161]
02 100,0 [D89C1B74] [D91A9347]
03 100,0 [39435996] [CA04A69A]
04 100,0 [4EC972F5] [4AAF0DF6]
05 100,0 [BE4DEA3C] [5C653B11]
06 100,0 [C29595CD] [092E5D21]
07 100,0 [48249394] [67E48D14]
08 100,0 [9C6F455F] [0BF18DF2]
09 100,0 [7CB38D4B] [FFD60BBA]

Foreigner - Can't Slow Down... When It's Live! (2010)

Track List CD2:

01. Feels Like The First Time [05:23]
02. Urgent [07:42]
03. Juke Box Hero [12:46]
04. Long, Long Way From Home [03:16]
05. I Want To Know What Love Is [07:00]
06. Hot Blooded [07:48]
07. Can't Slow Down (bonus track) [06:01]

Exact Audio Copy V0.99 prebeta 5 from 4. May 2009

EAC extraction logfile from 27. November 2010, 17:41

Foreigner / Can't Slow Down… When It's Live! CD2

Used drive : ASUS DRW-20B1ST Adapter: 1 ID: 0

Read mode : Secure
Utilize accurate stream : Yes
Defeat audio cache : Yes
Make use of C2 pointers : No

Read offset correction : 6
Overread into Lead-In and Lead-Out : No
Fill up missing offset samples with silence : Yes
Delete leading and trailing silent blocks : No
Null samples used in CRC calculations : Yes
Used interface : Native Win32 interface for Win NT & 2000

Used output format : User Defined Encoder
Selected bitrate : 1024 kBit/s
Quality : High
Add ID3 tag : No
Command line compressor : C:\Program Files\Exact Audio Copy\FLAC\FLAC.EXE
Additional command line options : -8 -V -T "ARTIST=%a" -T "TITLE=%t" -T "ALBUM=%g" -T "DATE=%y" -T "TRACKNUMBER=%n" -T "GENRE=%m" -T "COMMENT=%e" %s -o %d


TOC of the extracted CD

Track | Start | Length | Start sector | End sector
––––––––––––––––––––––––––––-
1 | 0:00.00 | 5:23.32 | 0 | 24256
2 | 5:23.32 | 7:42.35 | 24257 | 58941
3 | 13:05.67 | 12:45.11 | 58942 | 116327
4 | 25:51.03 | 3:16.20 | 116328 | 131047
5 | 29:07.23 | 7:00.34 | 131048 | 162581
6 | 36:07.57 | 7:47.41 | 162582 | 197647
7 | 43:55.23 | 6:00.62 | 197648 | 224709


Range status and errors

Selected range

Filename F:\Foreigner\Foreigner - Can't Slow Down… When It's Live! CD2.wav

Peak level 100.0 %
Range quality 100.0 %
Test CRC 33744FEE
Copy CRC 33744FEE
Copy OK

No errors occurred


AccurateRip summary

Track 1 not present in database
Track 2 not present in database
Track 3 not present in database
Track 4 not present in database
Track 5 not present in database
Track 6 not present in database
Track 7 not present in database

None of the tracks are present in the AccurateRip database

End of status report

[CUETools log; Date: 14.02.2020 13:18:24; Version: 2.1.6]
[CTDB TOCID: KT4zj0ykRbnzAXCrjmTnsYD8.4I-] found.
Track | CTDB Status
1 | (42/48) Accurately ripped, or (3/48) differs in 131 samples @00:16:10
2 | (47/48) Accurately ripped
3 | (46/48) Accurately ripped
4 | (46/48) Accurately ripped
5 | (47/48) Accurately ripped
6 | (46/48) Accurately ripped
7 | (46/48) Accurately ripped
[AccurateRip ID: 000df83b-0053f689-690bb407] found.
Track [ CRC | V2 ] Status
01 [3c8eeebc|f0bec57e] (02+13/18) Accurately ripped
02 [a2798cff|0ebb6b24] (02+13/18) Accurately ripped
03 [ff23a313|11ce6387] (02+13/18) Accurately ripped
04 [8064db4c|77ae4f1d] (02+13/18) Accurately ripped
05 [035c0d9b|b72efd35] (02+13/18) Accurately ripped
06 [a39f4c85|5d156321] (02+13/18) Accurately ripped
07 [ff6f3b30|6200f3ae] (02+13/18) Accurately ripped
Offsetted by -156:
01 [7e98c61b] (00/18) No match (V2 was not tested)
02 [b8f18e1a] (00/18) No match (V2 was not tested)
03 [9daf14c6] (00/18) No match (V2 was not tested)
04 [d5d4192d] (00/18) No match (V2 was not tested)
05 [efc38fca] (00/18) No match (V2 was not tested)
06 [4827572e] (00/18) No match (V2 was not tested)
07 [492f7c67] (00/18) No match (V2 was not tested)

Track Peak [ CRC32 ] [W/O NULL] [ LOG ]
– 100,0 [33744FEE] [14441892] CRC32
01 100,0 [7DB4424E] [EE22265E]
02 100,0 [9C2D6E48] [2DA512DF]
03 100,0 [F99B21DE] [1B246DA2]
04 100,0 [FFC05B86] [24B2ACDB]
05 100,0 [D3D28D86] [40DCA636]
06 100,0 [F61AE1C6] [A9384CB0]
07 100,0 [517EFBCF] [C67184FA]

Foreigner - Can't Slow Down... When It's Live! (2010)


All thanks go to the original ripper(s) …

>>> Foreigner in my Blog <<<

DOWNLOAD: