Subcategories

VA - For A Few Fuzz Guitars More (2013)

Posted By: v3122
VA - For A Few Fuzz Guitars More (2013)

Lazy Cowgirls - Tapping The Source (1987)
EAC | Flac(Image) + Cue + Log & MP3 CBR 320Kbps
Bomp! Records / BCD-4025 | ~ 211 or 70 Mb | Scans(jpg) -> 15 Mb
Punk Rock

For a Few Fuzz Guitars More is the sequel to A Fistful of Fuzz and like the first volume, features plenty of fuzz guitar. The feel of this collection is garagier (if that's a word) than A Fistful of Fuzz, but both volumes draw primarily from the late 1960s. The sound quality of For a Few Fuzz Guitars More is not as good as the first volume, as surface noise is more apparent on these recordings, but the tracks themselves are rawer late-1960s garage-psychedelia and the tone of much of the material on this CD is darker than on the first volume in the series. The opening tracks, "Doomsday" by the Purple Sun and "Last Day on Earth" by the Velvet Haze, set an apocalyptic tone for For a Few Fuzz Guitars More. This collection also contains a number of anti-war records—"Lottery" by Rochelle Rosenthal & the Kickball Queen and "Where Are We Now" by the Dystraction. For a Few Guitars More has its share of hippie drug songs—"Walls of My Mind" by the Ritual and "Ma-mari-huana" by the Sub. One disappointing thing about For a Few Fuzz Guitars More is the lack of liner notes. Where A Fistful of Fuzz had notes about every track, the only information given about the recordings included here are pictures of the labels of the original 45s.

~ mza-garage.blogspot.com
VA - For A Few Fuzz Guitars More (2013):

VA - For A Few Fuzz Guitars More (2013)

Tracklist:

01. Doomsday (The Purple Sun)
02. Last Day On Earth (Velvet Haze)
03. Elastic Soldier (The Golden Grass)
04. Toy Soldier (Bare Facts)
05. Walls Of My Mind (The Ritual)
06. Purple Haze (Sherman Marshall)
07. Hallucinations (Smith Vinson)
08. Lottery (Rochelle Rosenthal & The Kickball Queen)
09. Inside Outside (Goodly Rubenson)
10. Sheep (The Living End)
11. Fast-Master (Super Band)
12. The SUn Won't Shine Forever (The Peacepipe)
13. Where Are We Now? (The Dystraction)
14. You Know (The Fowl)
15. Leaves (White Lightnin')
16. Moon Maiden (The Twiggs)
17. School Daze (The Attack)
18. Babylon (Sounds Synonymous)
19. Ma-Mari-Huana (The Sub)
20. The Letter (The Outrage)

Exact Audio Copy V1.3 from 2. September 2016

EAC extraction logfile from 10. October 2018, 0:06

Various Artists / For A Few Fuzz Guitars More

Used drive : TSSTcorpCDDVDW SH-224DB Adapter: 1 ID: 0

Read mode : Secure
Utilize accurate stream : Yes
Defeat audio cache : Yes
Make use of C2 pointers : No

Read offset correction : 6
Overread into Lead-In and Lead-Out : No
Fill up missing offset samples with silence : Yes
Delete leading and trailing silent blocks : No
Null samples used in CRC calculations : Yes
Used interface : Native Win32 interface for Win NT & 2000
Gap handling : Appended to previous track

Used output format : User Defined Encoder
Selected bitrate : 1024 kBit/s
Quality : High
Add ID3 tag : No
Command line compressor : C:\Program Files (x86)\Exact Audio Copy\win64\flac.exe
Additional command line options : -8 -V -T "ARTIST=%artist%" -T "TITLE=%title%" -T "ALBUM=%albumtitle%" -T "DATE=%year%" -T "TRACKNUMBER=%tracknr%" -T "GENRE=%genre%" -T "COMMENT=%comment%" %source% -o %dest%


TOC of the extracted CD

Track | Start | Length | Start sector | End sector
––––––––––––––––––––––––––––-
1 | 0:00.00 | 2:44.73 | 0 | 12372
2 | 2:44.73 | 2:23.55 | 12373 | 23152
3 | 5:08.53 | 2:18.12 | 23153 | 33514
4 | 7:26.65 | 2:38.48 | 33515 | 45412
5 | 10:05.38 | 2:45.26 | 45413 | 57813
6 | 12:50.64 | 2:39.33 | 57814 | 69771
7 | 15:30.22 | 2:23.06 | 69772 | 80502
8 | 17:53.28 | 2:33.34 | 80503 | 92011
9 | 20:26.62 | 2:15.74 | 92012 | 102210
10 | 22:42.61 | 2:37.07 | 102211 | 113992
11 | 25:19.68 | 2:42.11 | 113993 | 126153
12 | 28:02.04 | 2:51.15 | 126154 | 138993
13 | 30:53.19 | 3:44.21 | 138994 | 155814
14 | 34:37.40 | 2:44.32 | 155815 | 168146
15 | 37:21.72 | 3:09.25 | 168147 | 182346
16 | 40:31.22 | 2:56.25 | 182347 | 195571
17 | 43:27.47 | 2:52.52 | 195572 | 208523
18 | 46:20.24 | 3:22.01 | 208524 | 223674
19 | 49:42.25 | 4:51.58 | 223675 | 245557
20 | 54:34.08 | 4:37.66 | 245558 | 266398


Track 1

Filename F:\Sket4er\Various – For A Few Fuzz Guitars More 2013\01 Doomsday.wav

Pre-gap length 0:00:02.00

Peak level 77.4 %
Extraction speed 1.5 X
Track quality 99.9 %
Test CRC 5581EBEF
Copy CRC 5581EBEF
Cannot be verified as accurate (confidence 1) [0717BB29], AccurateRip returned [FC947229] (AR v2)
Copy OK

Track 2

Filename F:\Sket4er\Various – For A Few Fuzz Guitars More 2013\02 Last Day On Earth.wav

Peak level 100.0 %
Extraction speed 1.5 X
Track quality 99.9 %
Test CRC 2CDBB54F
Copy CRC 2CDBB54F
Cannot be verified as accurate (confidence 2) [38302E4E], AccurateRip returned [B437C039] (AR v2)
Copy OK

Track 3

Filename F:\Sket4er\Various – For A Few Fuzz Guitars More 2013\03 Elastic Soldier.wav

Peak level 96.9 %
Extraction speed 1.9 X
Track quality 100.0 %
Test CRC 06D61957
Copy CRC 06D61957
Cannot be verified as accurate (confidence 2) [86DB9B6F], AccurateRip returned [9EDEF16D] (AR v2)
Copy OK

Track 4

Filename F:\Sket4er\Various – For A Few Fuzz Guitars More 2013\04 Toy Soldier.wav

Peak level 96.6 %
Extraction speed 2.1 X
Track quality 100.0 %
Test CRC BD6727ED
Copy CRC BD6727ED
Cannot be verified as accurate (confidence 2) [CA401C3B], AccurateRip returned [55A68972] (AR v2)
Copy OK

Track 5

Filename F:\Sket4er\Various – For A Few Fuzz Guitars More 2013\05 Walls Of My Mind.wav

Peak level 96.9 %
Extraction speed 1.7 X
Track quality 99.9 %
Test CRC 5CBDD3F5
Copy CRC 5CBDD3F5
Cannot be verified as accurate (confidence 2) [31D1994A], AccurateRip returned [80363635] (AR v2)
Copy OK

Track 6

Filename F:\Sket4er\Various – For A Few Fuzz Guitars More 2013\06 Purple Haze.wav

Peak level 88.0 %
Extraction speed 2.3 X
Track quality 100.0 %
Test CRC DB668C88
Copy CRC DB668C88
Cannot be verified as accurate (confidence 2) [EA4CEFE0], AccurateRip returned [9E78601C] (AR v2)
Copy OK

Track 7

Filename F:\Sket4er\Various – For A Few Fuzz Guitars More 2013\07 Hallucinations.wav

Peak level 69.4 %
Extraction speed 1.8 X
Track quality 99.9 %
Test CRC F88796EC
Copy CRC F88796EC
Cannot be verified as accurate (confidence 2) [F5E536E6], AccurateRip returned [F96EB216] (AR v2)
Copy OK

Track 8

Filename F:\Sket4er\Various – For A Few Fuzz Guitars More 2013\08 Lottery.wav

Peak level 93.0 %
Extraction speed 2.4 X
Track quality 100.0 %
Test CRC 7FA2A95C
Copy CRC 7FA2A95C
Cannot be verified as accurate (confidence 2) [0356851E], AccurateRip returned [F593AC20] (AR v2)
Copy OK

Track 9

Filename F:\Sket4er\Various – For A Few Fuzz Guitars More 2013\09 Inside Outside.wav

Peak level 88.9 %
Extraction speed 2.4 X
Track quality 100.0 %
Test CRC E0BD2E22
Copy CRC E0BD2E22
Cannot be verified as accurate (confidence 2) [941506A9], AccurateRip returned [A407FC7E] (AR v2)
Copy OK

Track 10

Filename F:\Sket4er\Various – For A Few Fuzz Guitars More 2013\10 Sheep.wav

Peak level 75.5 %
Extraction speed 2.6 X
Track quality 100.0 %
Test CRC 2B0E9206
Copy CRC 2B0E9206
Cannot be verified as accurate (confidence 2) [D50F63D6], AccurateRip returned [220C620A] (AR v2)
Copy OK

Track 11

Filename F:\Sket4er\Various – For A Few Fuzz Guitars More 2013\11 Fast-Master.wav

Peak level 96.6 %
Extraction speed 2.7 X
Track quality 100.0 %
Test CRC AEA0C069
Copy CRC AEA0C069
Cannot be verified as accurate (confidence 1) [62ED681D], AccurateRip returned [3B66ED06] (AR v2)
Copy OK

Track 12

Filename F:\Sket4er\Various – For A Few Fuzz Guitars More 2013\12 The SUn Won't Shine Forever.wav

Peak level 83.9 %
Extraction speed 2.8 X
Track quality 100.0 %
Test CRC C7630587
Copy CRC C7630587
Cannot be verified as accurate (confidence 1) [5189D8B4], AccurateRip returned [101F1BA3] (AR v2)
Copy OK

Track 13

Filename F:\Sket4er\Various – For A Few Fuzz Guitars More 2013\13 Where Are We Now.wav

Peak level 89.5 %
Extraction speed 3.0 X
Track quality 100.0 %
Test CRC 43B614E6
Copy CRC 43B614E6
Cannot be verified as accurate (confidence 1) [36B58948], AccurateRip returned [3F4BDF5C] (AR v2)
Copy OK

Track 14

Filename F:\Sket4er\Various – For A Few Fuzz Guitars More 2013\14 You Know.wav

Peak level 75.0 %
Extraction speed 2.9 X
Track quality 100.0 %
Test CRC 324C715C
Copy CRC 324C715C
Cannot be verified as accurate (confidence 1) [C3E51E91], AccurateRip returned [4A0F2AC5] (AR v2)
Copy OK

Track 15

Filename F:\Sket4er\Various – For A Few Fuzz Guitars More 2013\15 Leaves.wav

Peak level 77.1 %
Extraction speed 3.1 X
Track quality 100.0 %
Test CRC 40C7267D
Copy CRC 40C7267D
Cannot be verified as accurate (confidence 1) [806E01ED], AccurateRip returned [6A2028BC] (AR v2)
Copy OK

Track 16

Filename F:\Sket4er\Various – For A Few Fuzz Guitars More 2013\16 Moon Maiden.wav

Peak level 98.8 %
Extraction speed 3.1 X
Track quality 100.0 %
Test CRC B6D995AE
Copy CRC B6D995AE
Cannot be verified as accurate (confidence 1) [C22D3FDD], AccurateRip returned [2B580C88] (AR v2)
Copy OK

Track 17

Filename F:\Sket4er\Various – For A Few Fuzz Guitars More 2013\17 School Daze.wav

Peak level 100.0 %
Extraction speed 3.2 X
Track quality 100.0 %
Test CRC 937A3686
Copy CRC 937A3686
Cannot be verified as accurate (confidence 1) [09DC58A5], AccurateRip returned [BAA879DF] (AR v2)
Copy OK

Track 18

Filename F:\Sket4er\Various – For A Few Fuzz Guitars More 2013\18 Babylon.wav

Peak level 86.2 %
Extraction speed 3.3 X
Track quality 100.0 %
Test CRC 9EDE4BAE
Copy CRC 9EDE4BAE
Cannot be verified as accurate (confidence 1) [5E33C8D3], AccurateRip returned [3F45C8B2] (AR v2)
Copy OK

Track 19

Filename F:\Sket4er\Various – For A Few Fuzz Guitars More 2013\19 Ma-Mari-Huana.wav

Peak level 96.7 %
Extraction speed 3.6 X
Track quality 100.0 %
Test CRC C6CEB924
Copy CRC C6CEB924
Cannot be verified as accurate (confidence 1) [864E05E6], AccurateRip returned [FB06C9AC] (AR v2)
Copy OK

Track 20

Filename F:\Sket4er\Various – For A Few Fuzz Guitars More 2013\20 The Letter.wav

Peak level 100.0 %
Extraction speed 3.0 X
Track quality 99.9 %
Test CRC DB9D37FA
Copy CRC DB9D37FA
Cannot be verified as accurate (confidence 1) [0CD89713], AccurateRip returned [FA5398FF] (AR v2)
Copy OK


No tracks could be verified as accurate
You may have a different pressing from the one(s) in the database

No errors occurred

End of status report

–– CUETools DB Plugin V2.1.6

[CTDB TOCID: 2A3BoMAnA8wPuYt8nANs5nQrAw4-] found
Submit result: 2A3BoMAnA8wPuYt8nANs5nQrAw4- has been confirmed
Track | CTDB Status
1 | (2/2) Accurately ripped
2 | (2/2) Accurately ripped
3 | (2/2) Accurately ripped
4 | (2/2) Accurately ripped
5 | (2/2) Accurately ripped
6 | (2/2) Accurately ripped
7 | (2/2) Accurately ripped
8 | (2/2) Accurately ripped
9 | (2/2) Accurately ripped
10 | (2/2) Accurately ripped
11 | (2/2) Accurately ripped
12 | (2/2) Accurately ripped
13 | (2/2) Accurately ripped
14 | (2/2) Accurately ripped
15 | (2/2) Accurately ripped
16 | (2/2) Accurately ripped
17 | (2/2) Accurately ripped
18 | (2/2) Accurately ripped
19 | (2/2) Accurately ripped
20 | (2/2) Accurately ripped


==== Log checksum F17993BDA0A66FC4A17C2FE53C46B5F883321AA0032EA19AD6EE637B0ABBF05B ====


[CUETools log; Date: 11.10.2018 16:37:45; Version: 2.1.4]
[AccurateRip ID: 0026c978-0240ffe1-1c0ddf14] found.
Track [ CRC | V2 ] Status
01 [71813a00|0717bb29] (0+0/3) No match
02 [a285782e|38302e4e] (0+0/2) No match
03 [f344734b|86db9b6f] (0+0/2) No match
04 [443407a9|ca401c3b] (0+0/2) No match
05 [169201fd|31d1994a] (0+0/2) No match
06 [43c0fc63|ea4cefe0] (0+0/2) No match
07 [b8c1686a|f5e536e6] (0+0/2) No match
08 [9cd9f3ee|0356851e] (0+0/2) No match
09 [49e5870b|941506a9] (0+0/2) No match
10 [8eadd438|d50f63d6] (0+0/2) No match
11 [e76d3cee|62ed681d] (0+0/3) No match
12 [1d721e91|5189d8b4] (0+0/2) No match
13 [27e2d452|36b58948] (0+0/2) No match
14 [9a6113f3|c3e51e91] (0+0/2) No match
15 [046289b2|806e01ed] (0+0/2) No match
16 [4f0640ae|c22d3fdd] (0+0/2) No match
17 [046e6b71|09dc58a5] (0+0/2) No match
18 [a104a118|5e33c8d3] (0+0/2) No match
19 [b357a0fc|864e05e6] (0+0/2) No match
20 [830d971a|0cd89713] (0+0/2) No match
Offsetted by 6:
01 [fc947229] (1/3) Accurately ripped
02 [1fa7bcf6] (0/2) No match (V2 was not tested)
03 [0c5758c1] (0/2) No match (V2 was not tested)
04 [d0d1a971] (0/2) No match (V2 was not tested)
05 [6640ddd1] (0/2) No match (V2 was not tested)
06 [f92d2ba7] (0/2) No match (V2 was not tested)
07 [bd6a6782] (0/2) No match (V2 was not tested)
08 [904e2b4a] (0/2) No match (V2 was not tested)
09 [5ae4160d] (0/2) No match (V2 was not tested)
10 [dce1a44e] (0/2) No match (V2 was not tested)
11 [3b66ed06] (1/3) Accurately ripped
12 [101f1ba3] (1/2) Accurately ripped
13 [3f4bdf5c] (1/2) Accurately ripped
14 [4a0f2ac5] (1/2) Accurately ripped
15 [6a2028bc] (1/2) Accurately ripped
16 [2b580c88] (1/2) Accurately ripped
17 [baa879df] (1/2) Accurately ripped
18 [3f45c8b2] (1/2) Accurately ripped
19 [fb06c9ac] (1/2) Accurately ripped
20 [fa5398ff] (1/2) Accurately ripped

Track Peak [ CRC32 ] [W/O NULL] [ LOG ]
– 100,0 [1B0E03B8] [81B5DF42]
01 77,4 [5581EBEF] [35BEA7FA] CRC32
02 100,0 [2CDBB54F] [91FC7A86] CRC32
03 96,9 [06D61957] [634C14AB] CRC32
04 96,6 [BD6727ED] [A3804881] CRC32
05 96,9 [5CBDD3F5] [C17FAB23] CRC32
06 88,0 [DB668C88] [7BD959D2] CRC32
07 69,4 [F88796EC] [B9334AA1] CRC32
08 93,0 [7FA2A95C] [759469D6] CRC32
09 88,9 [E0BD2E22] [CC5B380B] CRC32
10 75,5 [2B0E9206] [C43E4AE0] CRC32
11 96,6 [AEA0C069] [147972F8] CRC32
12 83,9 [C7630587] [80A82D8B] CRC32
13 89,5 [43B614E6] [386F9C42] CRC32
14 75,0 [324C715C] [0667B90F] CRC32
15 77,1 [40C7267D] [FF43EF34] CRC32
16 98,8 [B6D995AE] [F75FEC63] CRC32
17 100,0 [937A3686] [A85F4D4A] CRC32
18 86,2 [9EDE4BAE] [08D4A1B0] CRC32
19 96,7 [C6CEB924] [B2880D2F] CRC32
20 99,9 [DB9D37FA] [3A077A9C] CRC32


VA - For A Few Fuzz Guitars More (2013)

All thanks go to Sket4er

Download VA - For A Few Fuzz Guitars More (2013):