Subcategories
Tags
Language
Tags

Florian Uhlig - Schumann: Piano Works, Vol. 5 - Schumann und seine Töchter (2013)

Posted By: tirexiss
Florian Uhlig - Schumann: Piano Works, Vol. 5 - Schumann und seine Töchter (2013)

Florian Uhlig - Schumann: Piano Works, Vol. 5 - Schumann und seine Töchter (2013)
EAC | FLAC (image+.cue, log) | Covers Included | 01:11:14 | 220 MB
Genre: Classical | Label: Hänssler Classic | Catalog: CD 98011

Robert und Clara Schumann waren mit Sicherheit außergewöhnliche Eltern nicht nur nach den Maßstäben des 19. Jahrhunderts. Vor allem fällt auf, wie viel Zeit Robert insbesondere seiner Tochter Marie, der Erstgeborenen, gewidmet hat. Marie, Elise und Julie sind die Töchter, für die Schumann kleine Stückchen komponierte und mit denen er auch musizierte. Und das nicht nur auf Kleinkind-Niveau.
Diese CD ist eine entzückende Rundschau über die Stücke und Melodien, die Schumann mit seinen Mädchen entwickelte und lässt beinahe Schumann sche Familienatmosphäre wiedererstehen. Wie nicht anders zu erwarten, sind eine ganze Reihe von Ersteinspielungen auf dieser CD vertreten.

Florian Uhlig - Schumann: Piano Works, Vol. 5 - Schumann und seine Töchter (2013)

Track List:

01. Kindersonate in G major op.118 no.1 - I. Lebhaft [0:02:36.24]
02. Kindersonate in G major op.118 no.1 - II. Thema mit Variationen: Ziemlich langsam [0:02:54.63]
03. Kindersonate in G major op.118 no.1 - III. Puppenwiegenlied: Nicht schnell [0:01:39.44]
04. Kindersonate in G major op.118 no.1 - IV. Rondoletto: Munter [0:02:35.26]
05. Wiegenliedchen [0:02:42.62]
06. Sonate in D major op.118 no.2 - I. Lebhaft [0:05:51.05]
07. Sonate in D major op.118 no.2 - II. Kanon: lebhaft [0:01:01.41]
08. Sonate in D major op.118 no.2 - III. Abendlied: Langsam [0:01:21.48]
09. Sonate in D major op.118 no.2 - IV Kindergesellschaft: Sehr lebhaft [0:03:42.48]
10. Schlummerlied. Allegretto [0:03:31.01]
11. Klvierbüchlein für Marie - 1 [0:01:06.13]
12. Klvierbüchlein für Marie - 2 [0:01:11.69]
13. Klvierbüchlein für Marie - 3 [0:01:34.34]
14. Klvierbüchlein für Marie - 4 [0:01:12.24]
15. Klvierbüchlein für Marie - 6 [0:00:49.11]
16. Klvierbüchlein für Marie - 7 [0:01:36.71]
17. Klvierbüchlein für Marie - 8 [0:00:55.70]
18. Klvierbüchlein für Marie - [0:00:56.15]
19. Ein Gang durch Musikgeschichte - Bach [0:01:54.23]
20. Ein Gang durch Musikgeschichte - Händel [0:00:49.57]
21. Ein Gang durch Musikgeschichte - Gluck [0:00:46.42]
22. Ein Gang durch Musikgeschichte - Mozart [0:00:52.46]
23. Ein Gang durch Musikgeschichte - Beethoven [0:02:09.66]
24. Ein Gang durch Musikgeschichte - Beethoven [0:00:42.63]
25. Ein Gang durch Musikgeschichte - Weber [0:01:31.74]
26. Ein Gang durch Musikgeschichte - Schubert [0:00:50.67]
27. Originalstücke zum "Album der Jugend" - I. [0:00:16.32]
28. Originalstücke zum "Album der Jugend" - II. [0:00:25.60]
29. Originalstücke zum "Album der Jugend" - III. [0:01:26.41]
30. Originalstücke zum "Album der Jugend" - IV. [0:01:29.49]
31. Originalstücke zum "Album der Jugend" - V. [0:00:49.35]
32. Originalstücke zum "Album der Jugend" - VI. [0:00:49.43]
33. Originalstücke zum "Album der Jugend" - VII. [0:00:19.70]
34. Originalstücke zum "Album der Jugend" - VIII. [0:00:16.40]
35. Originalstücke zum "Album der Jugend" - IX. [0:01:07.14]
36. Originalstücke zum "Album der Jugend" - X. [0:01:04.21]
37. Originalstücke zum "Album der Jugend" - XI. [0:00:37.40]
38. Originalstücke zum "Album der Jugend" - XII. [0:00:39.71]
39. Sonate in C major op.118 no.3 - I. Im Marschentempo [0:04:50.45]
40. Sonate in C major op.118 no.3 - II. Andante: Ausdrcksvoll [0:03:27.16]
41. Sonate in C major op.118 no.3 - III. Zigeunertanz: Schnell [0:01:38.09]
42. Sonate in C major op.118 no.3 - IV. Traum eines Kindes: Sehr lebhaft [0:05:19.32]

Performers:
Florian Uhlig - piano

Exact Audio Copy V1.0 beta 3 from 29. August 2011

EAC extraction logfile from 4. July 2014, 15:58

Florian Uhlig / Schumann - Complete Works for Piano Solo - Florian Uhlig (Vol.5)

Used drive : TSSTcorpCDDVDW SH-222BB Adapter: 2 ID: 1

Read mode : Secure
Utilize accurate stream : Yes
Defeat audio cache : Yes
Make use of C2 pointers : No

Read offset correction : 6
Overread into Lead-In and Lead-Out : No
Fill up missing offset samples with silence : Yes
Delete leading and trailing silent blocks : No
Null samples used in CRC calculations : Yes
Used interface : Native Win32 interface for Win NT & 2000

Used output format : User Defined Encoder
Selected bitrate : 896 kBit/s
Quality : High
Add ID3 tag : No
Command line compressor : C:\Program Files\Exact Audio Copy\FLAC\FLAC.EXE
Additional command line options : -8 -V -T "TITLE=%title%" -T "ARTIST=%artist%" -T "ALBUMARTIST=%albumartist%" -T "ALBUM=%albumtitle%" -T "DATE=%year%" -T "TRACKNUMBER=%tracknr%" -T "TRACKTOTAL=%numtracks%" -T "GENRE=%genre%" -T "COMMENT=%comment%" -T "PERFORMER=%albuminterpret%" -T "COMPOSER=%composer%" %source% -o %dest%


TOC of the extracted CD

Track | Start | Length | Start sector | End sector
––––––––––––––––––––––––––––-
1 | 0:00.00 | 2:36.24 | 0 | 11723
2 | 2:36.24 | 2:54.63 | 11724 | 24836
3 | 5:31.12 | 1:39.44 | 24837 | 32305
4 | 7:10.56 | 2:35.26 | 32306 | 43956
5 | 9:46.07 | 2:42.62 | 43957 | 56168
6 | 12:28.69 | 5:51.05 | 56169 | 82498
7 | 18:19.74 | 1:01.41 | 82499 | 87114
8 | 19:21.40 | 1:21.48 | 87115 | 93237
9 | 20:43.13 | 3:42.48 | 93238 | 109935
10 | 24:25.61 | 3:31.01 | 109936 | 125761
11 | 27:56.62 | 1:06.13 | 125762 | 130724
12 | 29:03.00 | 1:11.69 | 130725 | 136118
13 | 30:14.69 | 1:34.34 | 136119 | 143202
14 | 31:49.28 | 1:12.24 | 143203 | 148626
15 | 33:01.52 | 0:49.11 | 148627 | 152312
16 | 33:50.63 | 1:36.71 | 152313 | 159583
17 | 35:27.59 | 0:55.70 | 159584 | 163778
18 | 36:23.54 | 0:56.15 | 163779 | 167993
19 | 37:19.69 | 1:54.23 | 167994 | 176566
20 | 39:14.17 | 0:49.57 | 176567 | 180298
21 | 40:03.74 | 0:46.42 | 180299 | 183790
22 | 40:50.41 | 0:52.46 | 183791 | 187736
23 | 41:43.12 | 2:09.66 | 187737 | 197477
24 | 43:53.03 | 0:42.63 | 197478 | 200690
25 | 44:35.66 | 1:31.74 | 200691 | 207589
26 | 46:07.65 | 0:50.67 | 207590 | 211406
27 | 46:58.57 | 0:16.32 | 211407 | 212638
28 | 47:15.14 | 0:25.60 | 212639 | 214573
29 | 47:40.74 | 1:26.41 | 214574 | 221064
30 | 49:07.40 | 1:29.49 | 221065 | 227788
31 | 50:37.14 | 0:49.35 | 227789 | 231498
32 | 51:26.49 | 0:49.43 | 231499 | 235216
33 | 52:16.17 | 0:19.70 | 235217 | 236711
34 | 52:36.12 | 0:16.40 | 236712 | 237951
35 | 52:52.52 | 1:07.14 | 237952 | 242990
36 | 53:59.66 | 1:04.21 | 242991 | 247811
37 | 55:04.12 | 0:37.40 | 247812 | 250626
38 | 55:41.52 | 0:39.71 | 250627 | 253622
39 | 56:21.48 | 4:50.45 | 253623 | 275417
40 | 61:12.18 | 3:27.16 | 275418 | 290958
41 | 64:39.34 | 1:38.09 | 290959 | 298317
42 | 66:17.43 | 5:19.32 | 298318 | 322274


Range status and errors

Selected range

Filename G:\Ripped general\[7964] Schumann – Complete Works for Piano Solo – Florian Uhlig (Vol.5)\Schumann - Complete Works for Piano Solo - Florian Uhlig (Vol.5).wav

Peak level 99.3 %
Extraction speed 7.1 X
Range quality 100.0 %
Test CRC CC28683F
Copy CRC CC28683F
Copy OK

No errors occurred


AccurateRip summary

Track 1 not present in database
Track 2 not present in database
Track 3 not present in database
Track 4 not present in database
Track 5 not present in database
Track 6 not present in database
Track 7 not present in database
Track 8 not present in database
Track 9 not present in database
Track 10 not present in database
Track 11 not present in database
Track 12 not present in database
Track 13 not present in database
Track 14 not present in database
Track 15 not present in database
Track 16 not present in database
Track 17 not present in database
Track 18 not present in database
Track 19 not present in database
Track 20 not present in database
Track 21 not present in database
Track 22 not present in database
Track 23 not present in database
Track 24 not present in database
Track 25 not present in database
Track 26 not present in database
Track 27 not present in database
Track 28 not present in database
Track 29 not present in database
Track 30 not present in database
Track 31 not present in database
Track 32 not present in database
Track 33 not present in database
Track 34 not present in database
Track 35 not present in database
Track 36 not present in database
Track 37 not present in database
Track 38 not present in database
Track 39 not present in database
Track 40 not present in database
Track 41 not present in database
Track 42 not present in database

None of the tracks are present in the AccurateRip database

End of status report

==== Log checksum EE5BAEB5CBB4AE1153FB9A20FB5D236E6949B8087D8AF3EC91309465D07805FD ====

Thanks to the Original ripper (unknown)!

Welcome to my blog!

Download: