Subcategories
Tags
Language
Tags

Florian Uhlig - Schumann: Complete Works for Piano Solo, Vol. 2 (2011)

Posted By: tirexiss
Florian Uhlig - Schumann: Complete Works for Piano Solo, Vol. 2 (2011)

Florian Uhlig - Schumann: Complete Works for Piano Solo, Vol. 2 (2011)
EAC | FLAC (image+.cue, log) | Covers Included | 01:06:12 | 225 MB
Genre: Classical | Label: Hänssler Classic | Catalog: HAEN98632

«Uhlig does Schumann proud in every respect. He mantains an admirable balance of brilliance and good sense, with superb voicing, delineating every silken skein of the cat-'s cradle textures with clarity and grace. And though the music celebrates virtuosity - to which Uhlig rises impeccably - there's still a touching humility to his interpretations.» – BBC Music

Florian Uhlig - Schumann: Complete Works for Piano Solo, Vol. 2 (2011)

Track List:

01. Exercice pour le Pianoforte in C major [0:04:42.65]
02. Thème sur le nom "Abegg" varié op.1 - I. Thema: Animato [0:00:45.11]
03. Thème sur le nom "Abegg" varié op.1 - II. Variation 1 [0:00:48.39]
04. Thème sur le nom "Abegg" varié op.1 - III. Variation 2: Capriccioso [0:00:37.25]
05. Thème sur le nom "Abegg" varié op.1 - IV. Variation 3 [0:01:05.04]
06. Thème sur le nom "Abegg" varié op.1 - V. Variation 4 [0:00:53.70]
07. Thème sur le nom "Abegg" varié op.1 - VI. Variation 5: Cantabile [0:01:16.07]
08. Thème sur le nom "Abegg" varié op.1 - VII. Finale alla Fantasia: Vivace [0:02:28.05]
09. Studien für das Pianoforte nach Capricen von Paganini op.3 - 1 in A minor [0:03:30.51]
10. Studien für das Pianoforte nach Capricen von Paganini op.3 - 2. in E major [0:03:53.13]
11. Studien für das Pianoforte nach Capricen von Paganini op.3 - 3 in C major [0:01:55.24]
12. Studien für das Pianoforte nach Capricen von Paganini op.3 - 4 in B flat major [0:02:28.14]
13. Studien für das Pianoforte nach Capricen von Paganini op.3 - 5. in E flat major [0:02:37.00]
14. Studien für das Pianoforte nach Capricen von Paganini op.3 - 6 in G minor [0:01:39.68]
15. 6 Etudes de concert d'après des Caprices de Paganini op.10 - 1. in A flat major [0:05:52.07]
16. 6 Etudes de concert d'après des Caprices de Paganini op.10 - 2 in G minor [0:05:22.28]
17. 6 Etudes de concert d'après des Caprices de Paganini op.10 - 3 in G minor [0:03:11.68]
18. 6 Etudes de concert d'après des Caprices de Paganini op.10 - 4 in C minor [0:10:27.41]
19. 6 Etudes de concert d'après des Caprices de Paganini op.10 - 5 in B minor [0:02:15.51]
20. 6 Etudes de concert d'après des Caprices de Paganini op.10 - 6 in E minor/E major [0:04:26.26]
21. Toccata in C major op.7 [0:06:35.22]

Performers:
Florian Uhlig - piano

Exact Audio Copy V1.0 beta 3 from 29. August 2011

EAC extraction logfile from 4. July 2014, 12:31

Florian Uhlig / Schumann - Complete Works for Piano Solo - Florian Uhlig (Vol.2)

Used drive : TSSTcorpCDDVDW SH-222BB Adapter: 2 ID: 1

Read mode : Secure
Utilize accurate stream : Yes
Defeat audio cache : Yes
Make use of C2 pointers : No

Read offset correction : 6
Overread into Lead-In and Lead-Out : No
Fill up missing offset samples with silence : Yes
Delete leading and trailing silent blocks : No
Null samples used in CRC calculations : Yes
Used interface : Native Win32 interface for Win NT & 2000

Used output format : User Defined Encoder
Selected bitrate : 896 kBit/s
Quality : High
Add ID3 tag : No
Command line compressor : C:\Program Files\Exact Audio Copy\FLAC\FLAC.EXE
Additional command line options : -8 -V -T "TITLE=%title%" -T "ARTIST=%artist%" -T "ALBUMARTIST=%albumartist%" -T "ALBUM=%albumtitle%" -T "DATE=%year%" -T "TRACKNUMBER=%tracknr%" -T "TRACKTOTAL=%numtracks%" -T "GENRE=%genre%" -T "COMMENT=%comment%" -T "PERFORMER=%albuminterpret%" -T "COMPOSER=%composer%" %source% -o %dest%


TOC of the extracted CD

Track | Start | Length | Start sector | End sector
––––––––––––––––––––––––––––-
1 | 0:00.00 | 4:42.65 | 0 | 21214
2 | 4:42.65 | 0:45.11 | 21215 | 24600
3 | 5:28.01 | 0:48.39 | 24601 | 28239
4 | 6:16.40 | 0:37.25 | 28240 | 31039
5 | 6:53.65 | 1:05.04 | 31040 | 35918
6 | 7:58.69 | 0:53.70 | 35919 | 39963
7 | 8:52.64 | 1:16.07 | 39964 | 45670
8 | 10:08.71 | 2:28.05 | 45671 | 56775
9 | 12:37.01 | 3:30.51 | 56776 | 72576
10 | 16:07.52 | 3:53.13 | 72577 | 90064
11 | 20:00.65 | 1:55.24 | 90065 | 98713
12 | 21:56.14 | 2:28.14 | 98714 | 109827
13 | 24:24.28 | 2:37.00 | 109828 | 121602
14 | 27:01.28 | 1:39.68 | 121603 | 129095
15 | 28:41.21 | 5:52.07 | 129096 | 155502
16 | 34:33.28 | 5:22.28 | 155503 | 179680
17 | 39:55.56 | 3:11.68 | 179681 | 194073
18 | 43:07.49 | 10:27.41 | 194074 | 241139
19 | 53:35.15 | 2:15.51 | 241140 | 251315
20 | 55:50.66 | 4:26.26 | 251316 | 271291
21 | 60:17.17 | 6:35.22 | 271292 | 300938


Range status and errors

Selected range

Filename G:\Ripped general\[7967] Schumann – Complete Works for Piano Solo – Florian Uhlig (Vol.2)\Schumann - Complete Works for Piano Solo - Florian Uhlig (Vol.2).wav

Peak level 100.0 %
Extraction speed 7.0 X
Range quality 99.9 %
Test CRC 1C30EA6F
Copy CRC 1C30EA6F
Copy OK

No errors occurred


AccurateRip summary

Track 1 not present in database
Track 2 not present in database
Track 3 not present in database
Track 4 not present in database
Track 5 not present in database
Track 6 not present in database
Track 7 not present in database
Track 8 not present in database
Track 9 not present in database
Track 10 not present in database
Track 11 not present in database
Track 12 not present in database
Track 13 not present in database
Track 14 not present in database
Track 15 not present in database
Track 16 not present in database
Track 17 not present in database
Track 18 not present in database
Track 19 not present in database
Track 20 not present in database
Track 21 not present in database

None of the tracks are present in the AccurateRip database

End of status report

==== Log checksum A5F41F70D8AB68D5084F473C729651E945F982187F360AED50843C5DB45712C7 ====

Thanks to the Original ripper (unknown)!

Welcome to my blog!

Download: