Tags
Language
Tags

Fats Domino - Blueberry Hill (1988)

Posted By: popsakov
Fats Domino - Blueberry Hill (1988)

Fats Domino - Blueberry Hill (1988)
EAC Rip | FLAC (Tracks) + Cue + m3u + Log ~ 286 Mb | MP3 CBR320 ~ 109 Mb
Full Scans | RAR 5% Recovery
Early Rhythm & Blues, Rock & Roll | Starlite #CDS 51013

Antoine "Fats" Domino Jr. was an American pianist and singer-songwriter. One of the pioneers of rock and roll music, Domino sold more than 65 million records. Between 1955 and 1960, he had eleven Top 10 hits. His humility and shyness may be one reason his contribution to the genre has been overlooked. During his career, Domino had 35 records in the U.S. Billboard Top 40, and five of his pre-1955 records sold more than a million copies, being certified gold. His musical style was based on traditional rhythm and blues, accompanied by saxophones, bass, piano, electric guitar, and drums.

***************

Fats Domino - Blueberry Hill (1988)

Track List:

01. Blueberry Hill [2:19]
02. My Blue Heaven [2:06]
03. Kansas City [2:23]
04. I'm in Love Again [2:03]
05. Heart Break Hill [2:57]
06. Whole Lotta Loving [1:42]
07. Walking To New Orleans [2:06]
08. Deep In The Heart Of Texas [4:26]
09. Ain't That A Shame [2:27]
10. I'm Walkin' [0:00]
11. Let The Four Winds Blow [2:03]
12. I'm Ready [1:58]
13. Blue Monday [2:16]
14. Jambalaya On The Bayou [2:50]
15. So Long [3:24]
16. When The Saints Go Marchin' In [2:36]

Exact Audio Copy V1.3 from 2. September 2016

EAC extraction logfile from 7. January 2019, 7:44

Fats Domino / Blueberry Hill

Used drive : HL-DT-STDVDRAM GSA-T50N Adapter: 1 ID: 0

Read mode : Secure
Utilize accurate stream : Yes
Defeat audio cache : Yes
Make use of C2 pointers : No

Read offset correction : 667
Overread into Lead-In and Lead-Out : No
Fill up missing offset samples with silence : Yes
Delete leading and trailing silent blocks : No
Null samples used in CRC calculations : Yes
Used interface : Native Win32 interface for Win NT & 2000
Gap handling : Appended to previous track

Used output format : User Defined Encoder
Selected bitrate : 1024 kBit/s
Quality : High
Add ID3 tag : No
Command line compressor : C:\Program Files\Exact Audio Copy\Flac\flac.exe
Additional command line options : -V -8 -T "Genre=%genre%" -T "Artist=%artist%" -T "Title=%title%" -T "Album=%albumtitle%" -T "Date=%year%" -T "Tracknumber=%tracknr%" %source% -o %dest%


TOC of the extracted CD

Track | Start | Length | Start sector | End sector
––––––––––––––––––––––––––––-
1 | 0:00.00 | 2:19.35 | 0 | 10459
2 | 2:19.35 | 2:06.23 | 10460 | 19932
3 | 4:25.58 | 2:22.52 | 19933 | 30634
4 | 6:48.35 | 2:02.55 | 30635 | 39839
5 | 8:51.15 | 2:56.55 | 39840 | 53094
6 | 11:47.70 | 1:42.30 | 53095 | 60774
7 | 13:30.25 | 2:06.18 | 60775 | 70242
8 | 15:36.43 | 4:26.27 | 70243 | 90219
9 | 20:02.70 | 2:26.65 | 90220 | 101234
10 | 22:29.60 | 2:04.10 | 101235 | 110544
11 | 24:33.70 | 2:03.00 | 110545 | 119769
12 | 26:36.70 | 1:57.68 | 119770 | 128612
13 | 28:34.63 | 2:16.12 | 128613 | 138824
14 | 30:51.00 | 2:50.20 | 138825 | 151594
15 | 33:41.20 | 3:24.25 | 151595 | 166919
16 | 37:05.45 | 2:35.38 | 166920 | 178582


Track 1

Filename C:\music\MG rips\Fats Domino - Blueberry Hill - 1988 (Starliet CDS 51013) [FLAC]\01 - Blueberry Hill.wav

Pre-gap length 0:00:02.00

Peak level 89.0 %
Extraction speed 1.5 X
Track quality 100.0 %
Test CRC 4BFDCF86
Copy CRC 4BFDCF86
Cannot be verified as accurate (confidence 3) [9F2F4C59], AccurateRip returned [9A127DF3] (AR v2)
Copy OK

Track 2

Filename C:\music\MG rips\Fats Domino - Blueberry Hill - 1988 (Starliet CDS 51013) [FLAC]\02 - My Blue Heaven.wav

Peak level 82.6 %
Extraction speed 1.0 X
Track quality 100.0 %
Test CRC 6C4853F6
Copy CRC 6C4853F6
Cannot be verified as accurate (confidence 3) [A9EAAF8B], AccurateRip returned [C40977A9] (AR v2)
Copy OK

Track 3

Filename C:\music\MG rips\Fats Domino - Blueberry Hill - 1988 (Starliet CDS 51013) [FLAC]\03 - Kansas City.wav

Peak level 90.2 %
Extraction speed 0.9 X
Track quality 100.0 %
Test CRC CEC8B90E
Copy CRC CEC8B90E
Cannot be verified as accurate (confidence 3) [87388917], AccurateRip returned [1F455DC8] (AR v2)
Copy OK

Track 4

Filename C:\music\MG rips\Fats Domino - Blueberry Hill - 1988 (Starliet CDS 51013) [FLAC]\04 - I'm in Love Again.wav

Peak level 83.5 %
Extraction speed 1.0 X
Track quality 100.0 %
Test CRC 6A9F9629
Copy CRC 6A9F9629
Cannot be verified as accurate (confidence 3) [0E9D00D3], AccurateRip returned [6FE48E40] (AR v2)
Copy OK

Track 5

Filename C:\music\MG rips\Fats Domino - Blueberry Hill - 1988 (Starliet CDS 51013) [FLAC]\05 - Heart Break Hill.wav

Peak level 90.6 %
Extraction speed 1.0 X
Track quality 100.0 %
Test CRC BC1A28BC
Copy CRC BC1A28BC
Cannot be verified as accurate (confidence 3) [17250944], AccurateRip returned [99764345] (AR v2)
Copy OK

Track 6

Filename C:\music\MG rips\Fats Domino - Blueberry Hill - 1988 (Starliet CDS 51013) [FLAC]\06 - Whole Lotta Loving.wav

Peak level 84.8 %
Extraction speed 0.9 X
Track quality 100.0 %
Test CRC C4780A5F
Copy CRC C4780A5F
Cannot be verified as accurate (confidence 3) [2DEDEC5C], AccurateRip returned [1B48D701] (AR v2)
Copy OK

Track 7

Filename C:\music\MG rips\Fats Domino - Blueberry Hill - 1988 (Starliet CDS 51013) [FLAC]\07 - Walking To New Orleans.wav

Peak level 83.5 %
Extraction speed 1.1 X
Track quality 100.0 %
Test CRC CE03073C
Copy CRC CE03073C
Cannot be verified as accurate (confidence 3) [D8390AD8], AccurateRip returned [403C99EE] (AR v2)
Copy OK

Track 8

Filename C:\music\MG rips\Fats Domino - Blueberry Hill - 1988 (Starliet CDS 51013) [FLAC]\08 - Deep In The Heart Of Texas.wav

Peak level 88.8 %
Extraction speed 1.3 X
Track quality 100.0 %
Test CRC 6C2D739A
Copy CRC 6C2D739A
Cannot be verified as accurate (confidence 3) [ABD0DBD0], AccurateRip returned [E1DE18D5] (AR v2)
Copy OK

Track 9

Filename C:\music\MG rips\Fats Domino - Blueberry Hill - 1988 (Starliet CDS 51013) [FLAC]\09 - Ain't That A Shame.wav

Peak level 83.9 %
Extraction speed 1.2 X
Track quality 100.0 %
Test CRC 47653442
Copy CRC 47653442
Cannot be verified as accurate (confidence 3) [81F9F87C], AccurateRip returned [28192F5F] (AR v2)
Copy OK

Track 10

Filename C:\music\MG rips\Fats Domino - Blueberry Hill - 1988 (Starliet CDS 51013) [FLAC]\10 - Ï'm Walkin'.wav

Peak level 89.2 %
Extraction speed 1.0 X
Track quality 99.9 %
Test CRC 222DF45C
Copy CRC 222DF45C
Cannot be verified as accurate (confidence 3) [8D9D132E], AccurateRip returned [0F47E9B9] (AR v2)
Copy OK

Track 11

Filename C:\music\MG rips\Fats Domino - Blueberry Hill - 1988 (Starliet CDS 51013) [FLAC]\11 - Let The Four Winds Blow.wav

Peak level 89.9 %
Extraction speed 1.3 X
Track quality 100.0 %
Test CRC D9E20D81
Copy CRC D9E20D81
Cannot be verified as accurate (confidence 3) [806B2981], AccurateRip returned [87427FD2] (AR v2)
Copy OK

Track 12

Filename C:\music\MG rips\Fats Domino - Blueberry Hill - 1988 (Starliet CDS 51013) [FLAC]\12 - I'm Ready.wav

Peak level 83.7 %
Extraction speed 1.6 X
Track quality 100.0 %
Test CRC 300D8646
Copy CRC 300D8646
Cannot be verified as accurate (confidence 3) [7779E437], AccurateRip returned [DED1DA4F] (AR v2)
Copy OK

Track 13

Filename C:\music\MG rips\Fats Domino - Blueberry Hill - 1988 (Starliet CDS 51013) [FLAC]\13 - Blue Monday.wav

Peak level 83.9 %
Extraction speed 1.5 X
Track quality 100.0 %
Test CRC 4C4AFA6A
Copy CRC 4C4AFA6A
Cannot be verified as accurate (confidence 3) [8B13ACAF], AccurateRip returned [365F3C91] (AR v2)
Copy OK

Track 14

Filename C:\music\MG rips\Fats Domino - Blueberry Hill - 1988 (Starliet CDS 51013) [FLAC]\14 - Jambalaya On The Bayou.wav

Peak level 85.7 %
Extraction speed 1.4 X
Track quality 100.0 %
Test CRC 926211BA
Copy CRC 926211BA
Cannot be verified as accurate (confidence 3) [0720EE3E], AccurateRip returned [DA64644E] (AR v2)
Copy OK

Track 15

Filename C:\music\MG rips\Fats Domino - Blueberry Hill - 1988 (Starliet CDS 51013) [FLAC]\15 - So Long.wav

Peak level 88.0 %
Extraction speed 1.6 X
Track quality 100.0 %
Test CRC 15D0325B
Copy CRC 15D0325B
Cannot be verified as accurate (confidence 3) [3E727281], AccurateRip returned [E67AAD94] (AR v2)
Copy OK

Track 16

Filename C:\music\MG rips\Fats Domino - Blueberry Hill - 1988 (Starliet CDS 51013) [FLAC]\16 - When The Saints Go Marchin' In.wav

Peak level 90.9 %
Extraction speed 1.8 X
Track quality 100.0 %
Test CRC B2E1BCA6
Copy CRC B2E1BCA6
Cannot be verified as accurate (confidence 3) [16313E53], AccurateRip returned [309B2639] (AR v2)
Copy OK


No tracks could be verified as accurate
You may have a different pressing from the one(s) in the database

No errors occurred

End of status report

==== Log checksum 6486AA001A6514014E7E98DC23CC1E03EF6F649650FA51C6E4AC84AD17845FB6 ====

Fats Domino - Blueberry Hill (1988)

All thanks go to Musicgate

>>> My Blog <<<

Download from icerbox.com: