Subcategories

VA - Formation 60 (1998) {Jazzanova Compost}

Posted By: TestTickles
VA - Formation 60 (1998) {Jazzanova Compost}

VA - Formation 60 (1998) {Jazzanova Compost}
EAC Rip | FLAC with CUE and LOG | scans | 203 mb
MP3 CBR 320 kbps | RAR | 71 mb
Genre: jazz

Formation 60 is a 1998 compilation released by Jazzanova Compost. Subtitled Modern Jazz From Eastern Germany Amiga 1957-69, it's a brief hint not only at the Eastern Germany scene around the time the wall divided the country but also some of the music that influenced Jazzanova as record collectors and fans.

01. Manfred-Ludwig Sextett - Zwielicht (2:47)
02. Toby Fichelscher & Günter Wilk - On Chano¹s Track (3:11)
03. Manfred-Ludwig Sextett - Skandinavia (2:44)
04. Michael Fritzen Quartett - Rien (3:03)
05. Orchester Klaus Lenz - Zottos (3:19)
06. Volkmar Schmidt Combo - Episode (5:03)
07. Manfred-Ludwig Sextett - Gral (2:26)
08. Theo Schumann Combo - Karawane (2:33)
09. Werner Pfüller Quintett - Good Bait (2:41)
10. Modern Jazz Big Band 65 - Kleines Lied Für Eric (4:27)

Exact Audio Copy V1.0 beta 6 from 9. April 2015

EAC extraction logfile from 28. July 2020, 15:10

Various Artists / Formation 60

Used drive : TSSTcorpDVD+-RW TS-L633C Adapter: 1 ID: 0

Read mode : Secure
Utilize accurate stream : Yes
Defeat audio cache : Yes
Make use of C2 pointers : No

Read offset correction : 6
Overread into Lead-In and Lead-Out : No
Fill up missing offset samples with silence : Yes
Delete leading and trailing silent blocks : No
Null samples used in CRC calculations : Yes
Used interface : Native Win32 interface for Win NT & 2000
Gap handling : Appended to previous track

Used output format : Internal WAV Routines
Sample format : 44.100 Hz; 16 Bit; Stereo


TOC of the extracted CD

Track | Start | Length | Start sector | End sector
––––––––––––––––––––––––––––-
1 | 0:00.00 | 2:50.30 | 0 | 12779
2 | 2:50.30 | 3:14.30 | 12780 | 27359
3 | 6:04.60 | 2:47.65 | 27360 | 39949
4 | 8:52.50 | 3:06.65 | 39950 | 53964
5 | 11:59.40 | 3:22.05 | 53965 | 69119
6 | 15:21.45 | 5:05.70 | 69120 | 92064
7 | 20:27.40 | 2:29.25 | 92065 | 103264
8 | 22:56.65 | 2:36.70 | 103265 | 115034
9 | 25:33.60 | 2:43.65 | 115035 | 127324
10 | 28:17.50 | 4:27.47 | 127325 | 147396


Track 1

Filename C:\My Documents\My FLAC\VA - Formation 60 (1998) [FLAC] {Jazzanova Compost}\01 - Manfred-Ludwig Sextett - Zwielicht.wav

Pre-gap length 0:00:02.00

Peak level 98.8 %
Extraction speed 2.5 X
Track quality 100.0 %
Test CRC DE77F6CD
Copy CRC DE77F6CD
Cannot be verified as accurate (confidence 2) [2BDAFD9E], AccurateRip returned [02CB02F7] (AR v2)
Copy OK

Track 2

Filename C:\My Documents\My FLAC\VA - Formation 60 (1998) [FLAC] {Jazzanova Compost}\02 - Toby Fichelscher & Günter Wilk - On Chano¹s Track.wav

Peak level 98.8 %
Extraction speed 2.8 X
Track quality 100.0 %
Test CRC 6BAF16C2
Copy CRC 6BAF16C2
Cannot be verified as accurate (confidence 2) [F4D22C07], AccurateRip returned [3D9F9E05] (AR v2)
Copy OK

Track 3

Filename C:\My Documents\My FLAC\VA - Formation 60 (1998) [FLAC] {Jazzanova Compost}\03 - Manfred-Ludwig Sextett - Skandinavia.wav

Peak level 98.8 %
Extraction speed 2.9 X
Track quality 100.0 %
Test CRC 26B83717
Copy CRC 26B83717
Cannot be verified as accurate (confidence 2) [16BA2963], AccurateRip returned [53A39A5C] (AR v2)
Copy OK

Track 4

Filename C:\My Documents\My FLAC\VA - Formation 60 (1998) [FLAC] {Jazzanova Compost}\04 - Michael Fritzen Quartett - Rien.wav

Peak level 98.8 %
Extraction speed 1.6 X
Track quality 99.9 %
Test CRC 0A83F30E
Copy CRC 0A83F30E
Cannot be verified as accurate (confidence 2) [A69CBEF4], AccurateRip returned [CD77DDFD] (AR v2)
Copy OK

Track 5

Filename C:\My Documents\My FLAC\VA - Formation 60 (1998) [FLAC] {Jazzanova Compost}\05 - Orchester Klaus Lenz - Zottos.wav

Peak level 98.8 %
Extraction speed 3.1 X
Track quality 100.0 %
Test CRC 529860F9
Copy CRC 529860F9
Cannot be verified as accurate (confidence 2) [3A7993A4], AccurateRip returned [E9E9DFD5] (AR v2)
Copy OK

Track 6

Filename C:\My Documents\My FLAC\VA - Formation 60 (1998) [FLAC] {Jazzanova Compost}\06 - Volkmar Schmidt Combo - Episode.wav

Peak level 98.8 %
Extraction speed 3.4 X
Track quality 100.0 %
Test CRC 2F4947AA
Copy CRC 2F4947AA
Cannot be verified as accurate (confidence 2) [C5787D81], AccurateRip returned [7556A9E0] (AR v2)
Copy OK

Track 7

Filename C:\My Documents\My FLAC\VA - Formation 60 (1998) [FLAC] {Jazzanova Compost}\07 - Manfred-Ludwig Sextett - Gral.wav

Peak level 98.8 %
Extraction speed 3.3 X
Track quality 100.0 %
Test CRC BE0BCDDD
Copy CRC BE0BCDDD
Cannot be verified as accurate (confidence 2) [B0E170B9], AccurateRip returned [BA166EC1] (AR v2)
Copy OK

Track 8

Filename C:\My Documents\My FLAC\VA - Formation 60 (1998) [FLAC] {Jazzanova Compost}\08 - Theo Schumann Combo - Karawane.wav

Peak level 98.8 %
Extraction speed 3.4 X
Track quality 100.0 %
Test CRC C7C931E0
Copy CRC C7C931E0
Cannot be verified as accurate (confidence 2) [57DC781C], AccurateRip returned [E4778F94] (AR v2)
Copy OK

Track 9

Filename C:\My Documents\My FLAC\VA - Formation 60 (1998) [FLAC] {Jazzanova Compost}\09 - Werner Pfüller Quintett - Good Bait.wav

Peak level 98.8 %
Extraction speed 2.1 X
Track quality 100.0 %
Test CRC 1A381D93
Copy CRC 1A381D93
Cannot be verified as accurate (confidence 2) [09F997FE], AccurateRip returned [2F605B38] (AR v2)
Copy OK

Track 10

Filename C:\My Documents\My FLAC\VA - Formation 60 (1998) [FLAC] {Jazzanova Compost}\10 - Modern Jazz Big Band 65 - Kleines Lied Für Eric.wav

Peak level 98.8 %
Extraction speed 2.8 X
Track quality 100.0 %
Test CRC 6A800DC5
Copy CRC 6A800DC5
Cannot be verified as accurate (confidence 2) [0435DD42], AccurateRip returned [D132B502] (AR v2)
Copy OK


No tracks could be verified as accurate
You may have a different pressing from the one(s) in the database

No errors occurred

End of status report

–– CUETools DB Plugin V2.1.6

[CTDB TOCID: RQifPOJbI_vZ7HcUQ0S0l4BDAO8-] found
Submit result: RQifPOJbI_vZ7HcUQ0S0l4BDAO8- has been submitted
Track | CTDB Status
1 | (0/3) No match
2 | (3/3) Accurately ripped
3 | (3/3) Accurately ripped
4 | (3/3) Accurately ripped
5 | (3/3) Accurately ripped
6 | (0/3) No match
7 | (0/3) No match
8 | (3/3) Accurately ripped
9 | (0/3) No match
10 | (3/3) Accurately ripped


==== Log checksum AE3C3EF4425A86861CA0F4E43C3E87A622E4C45910300B397F32FA2955D12075 ====


VA - Formation 60 (1998) {Jazzanova Compost}