Subcategories
Tags
Language
Tags

Erich Leinsdorf conducts Beethoven: Symphonies Nos. 1-9 (2012) (5 CDs Box Set)

Posted By: murena
Erich Leinsdorf conducts Beethoven: Symphonies Nos. 1-9 (2012) (5 CDs Box Set)

Erich Leinsdorf conducts Beethoven: Symphonies Nos. 1-9 (2012) (5 CDs Box Set)
EAC Rip | FLAC (Image+.cue, log) | 5 CDs, 05:47:29 min | Covers included | 1,55 Gb
Genre: Classical / Label: Sony Classical

Erich Leinsdorf was an Austrian-born American conductor. He performed and recorded with leading orchestras and opera companies throughout the United States and Europe, earning a reputation for exacting standards as well as an acerbic personality. He also published books and essays on musical matters.

Tracklist

CD1

Symphony No. 1 in C major, Op. 21
1. I. Adagio molto - Allegro con brio
2. II. Andante cantabile con moto
3. III. Menuett. Allegro molto e vivace - Trio
4. IV. Adagio - Allegro molto e vivace
Symphony No. 7 in A major, Op. 92
5. I. Poco sostenuto - Vivace
6. II. Allegretto
7. III. Presto
8. IV. Allegro con brio
Recording: (1-4) April 23, 1969; (5-8) 1966

Exact Audio Copy V1.0 beta 3 from 29. August 2011
EAC extraction logfile from 18. March 2012, 12:05
Erich Leinsdorf / Beethoven - The Symphonies - Leinsdorf (cd 1)
Used drive : HL-DT-STDVDRAM GSA-H10A Adapter: 0 ID: 0
Read mode : Secure
Utilize accurate stream : Yes
Defeat audio cache : Yes
Make use of C2 pointers : No
Read offset correction : 667
Overread into Lead-In and Lead-Out : No
Fill up missing offset samples with silence : Yes
Delete leading and trailing silent blocks : No
Null samples used in CRC calculations : Yes
Used interface : Native Win32 interface for Win NT & 2000
Used output format : User Defined Encoder
Selected bitrate : 1024 kBit/s
Quality : High
Add ID3 tag : No
Command line compressor : C:\Program Files\Exact Audio Copy\Flac\flac.exe
Additional command line options : -8 -V -T "TITLE=%title%" -T "ARTIST=%artist%" -T "ALBUMARTIST=%albumartist%" -T "ALBUM=%albumtitle%" -T "DATE=%year%" -T "TRACKNUMBER=%tracknr%" -T "TRACKTOTAL=%numtracks%" -T "GENRE=%genre%" -T "COMMENT=%comment%" -T "PERFORMER=%albuminterpret%" -T "COMPOSER=%composer%" %source% -o %dest%
TOC of the extracted CD
Track | Start | Length | Start sector | End sector
––––––––––––––––––––––––––––-
1 | 0:00.00 | 8:13.62 | 0 | 37036
2 | 8:13.62 | 8:10.73 | 37037 | 73859
3 | 16:24.60 | 3:38.00 | 73860 | 90209
4 | 20:02.60 | 5:35.72 | 90210 | 115406
5 | 25:38.57 | 15:44.20 | 115407 | 186226
6 | 41:23.02 | 8:44.38 | 186227 | 225564
7 | 50:07.40 | 9:46.00 | 225565 | 269514
8 | 59:53.40 | 9:11.45 | 269515 | 310884
Range status and errors
Selected range
Filename F:\Ripped general\[9929] Beethoven - The Symphonies - Leinsdorf\cd1\Beethoven - The Symphonies - Leinsdorf (cd 1).wav
Peak level 96.8 %
Extraction speed 7.5 X
Range quality 100.0 %
Test CRC 40CCBCD6
Copy CRC 40CCBCD6
Copy OK
No errors occurred
AccurateRip summary
Track 1 cannot be verified as accurate (confidence 1) [17B09249], AccurateRip returned [09B221CB] (AR v2)
Track 2 cannot be verified as accurate (confidence 1) [5E39A581], AccurateRip returned [7F55BCB1] (AR v2)
Track 3 cannot be verified as accurate (confidence 1) [1AF9405F], AccurateRip returned [5B35DC77] (AR v2)
Track 4 cannot be verified as accurate (confidence 1) [4DA2C22C], AccurateRip returned [43DE3211] (AR v2)
Track 5 cannot be verified as accurate (confidence 1) [045FD5B1], AccurateRip returned [54E5744A] (AR v2)
Track 6 cannot be verified as accurate (confidence 1) [25F65714], AccurateRip returned [23506FA3] (AR v2)
Track 7 cannot be verified as accurate (confidence 1) [74FCE22D], AccurateRip returned [9E45BE4F] (AR v2)
Track 8 cannot be verified as accurate (confidence 1) [4ABE0463], AccurateRip returned [240C83E4] (AR v2)
No tracks could be verified as accurate
You may have a different pressing from the one(s) in the database
End of status report


CD2

Symphony No. 2 in D major, Op. 36
1. I. Adagio Molto-Allegro Con Brio
2. II. Larghetto
3. III. Scherzo- Allegro
4. IV. Allegro Molto
Symphony No. 6 in F major "Pastoral", Op. 68
5. I. Allegro Ma Non Troppo
6. II. Andate Molto Moto
7. III. Allegro
8. IV. Allegro
9. V. Allegretto
Recording: (1-4) March 6, 1967; (5-9) 1969

Exact Audio Copy V1.0 beta 3 from 29. August 2011
EAC extraction logfile from 18. March 2012, 12:27
Erich Leinsdorf / Beethoven - The Symphonies - Leinsdorf (cd 2)
Used drive : HL-DT-STDVDRAM GSA-H10A Adapter: 0 ID: 0
Read mode : Secure
Utilize accurate stream : Yes
Defeat audio cache : Yes
Make use of C2 pointers : No
Read offset correction : 667
Overread into Lead-In and Lead-Out : No
Fill up missing offset samples with silence : Yes
Delete leading and trailing silent blocks : No
Null samples used in CRC calculations : Yes
Used interface : Native Win32 interface for Win NT & 2000
Used output format : User Defined Encoder
Selected bitrate : 1024 kBit/s
Quality : High
Add ID3 tag : No
Command line compressor : C:\Program Files\Exact Audio Copy\Flac\flac.exe
Additional command line options : -8 -V -T "TITLE=%title%" -T "ARTIST=%artist%" -T "ALBUMARTIST=%albumartist%" -T "ALBUM=%albumtitle%" -T "DATE=%year%" -T "TRACKNUMBER=%tracknr%" -T "TRACKTOTAL=%numtracks%" -T "GENRE=%genre%" -T "COMMENT=%comment%" -T "PERFORMER=%albuminterpret%" -T "COMPOSER=%composer%" %source% -o %dest%
TOC of the extracted CD
Track | Start | Length | Start sector | End sector
––––––––––––––––––––––––––––-
1 | 0:00.00 | 12:23.15 | 0 | 55739
2 | 12:23.15 | 11:22.47 | 55740 | 106936
3 | 23:45.62 | 3:50.23 | 106937 | 124209
4 | 27:36.10 | 6:42.12 | 124210 | 154371
5 | 34:18.22 | 9:08.43 | 154372 | 195514
6 | 43:26.65 | 12:15.42 | 195515 | 250681
7 | 55:42.32 | 5:17.53 | 250682 | 274509
8 | 61:00.10 | 3:23.22 | 274510 | 289756
9 | 64:23.32 | 8:39.63 | 289757 | 328744
Range status and errors
Selected range
Filename F:\Ripped general\[9929] Beethoven - The Symphonies - Leinsdorf\cd2\Beethoven - The Symphonies - Leinsdorf (cd 2).wav
Peak level 100.0 %
Extraction speed 7.6 X
Range quality 100.0 %
Test CRC 754D0B28
Copy CRC 754D0B28
Copy OK
No errors occurred
AccurateRip summary
Track 1 cannot be verified as accurate (confidence 2) [3E7C6412], AccurateRip returned [4EB57057] (AR v2)
Track 2 cannot be verified as accurate (confidence 2) [619F1921], AccurateRip returned [E7400D6B] (AR v2)
Track 3 cannot be verified as accurate (confidence 2) [9C95454C], AccurateRip returned [BFDE2217] (AR v2)
Track 4 cannot be verified as accurate (confidence 2) [34F72BFB], AccurateRip returned [47E44AB9] (AR v2)
Track 5 cannot be verified as accurate (confidence 2) [88D8E113], AccurateRip returned [FECD6B38] (AR v2)
Track 6 cannot be verified as accurate (confidence 2) [FFCF7D77], AccurateRip returned [9BEC8337] (AR v2)
Track 7 cannot be verified as accurate (confidence 2) [6C22FA7A], AccurateRip returned [70C391D0] (AR v2)
Track 8 cannot be verified as accurate (confidence 2) [AEF4BEB2], AccurateRip returned [A767DE98] (AR v2)
Track 9 cannot be verified as accurate (confidence 2) [AE67B46E], AccurateRip returned [009C1B47] (AR v2)
No tracks could be verified as accurate
You may have a different pressing from the one(s) in the database
End of status report


CD3

Symphony No 3 in E-flat major, Op 55 "Eroica"
1. I. Allegro con brio
2. II. Marcia funebre; Adagio assai
3. III. Scherzo: Allegro vivace; Trio
4. IV. Finale: Allegro molto; Poco andante; Presto
Symphony No 8 in F major, Op 93
5. I. Allegro vivace e con brio
6. II. Allegretto scherzando
7. III. Tempo di Menuetto
8. IV. Allegro vivace
Recording: (1-4) September 30, 1962; (5-8) April 24, 1969

Exact Audio Copy V1.0 beta 3 from 29. August 2011
EAC extraction logfile from 18. March 2012, 12:57
Erich Leinsdorf / Beethoven - The Symphonies - Leinsdorf (cd 3)
Used drive : HL-DT-STDVDRAM GSA-H10A Adapter: 0 ID: 0
Read mode : Secure
Utilize accurate stream : Yes
Defeat audio cache : Yes
Make use of C2 pointers : No
Read offset correction : 667
Overread into Lead-In and Lead-Out : No
Fill up missing offset samples with silence : Yes
Delete leading and trailing silent blocks : No
Null samples used in CRC calculations : Yes
Used interface : Native Win32 interface for Win NT & 2000
Used output format : User Defined Encoder
Selected bitrate : 1024 kBit/s
Quality : High
Add ID3 tag : No
Command line compressor : C:\Program Files\Exact Audio Copy\Flac\flac.exe
Additional command line options : -8 -V -T "TITLE=%title%" -T "ARTIST=%artist%" -T "ALBUMARTIST=%albumartist%" -T "ALBUM=%albumtitle%" -T "DATE=%year%" -T "TRACKNUMBER=%tracknr%" -T "TRACKTOTAL=%numtracks%" -T "GENRE=%genre%" -T "COMMENT=%comment%" -T "PERFORMER=%albuminterpret%" -T "COMPOSER=%composer%" %source% -o %dest%
TOC of the extracted CD
Track | Start | Length | Start sector | End sector
––––––––––––––––––––––––––––-
1 | 0:00.00 | 15:40.00 | 0 | 70499
2 | 15:40.00 | 16:13.15 | 70500 | 143489
3 | 31:53.15 | 6:11.12 | 143490 | 171326
4 | 38:04.27 | 12:09.28 | 171327 | 226029
5 | 50:13.55 | 9:30.37 | 226030 | 268816
6 | 59:44.17 | 3:51.38 | 268817 | 286179
7 | 63:35.55 | 4:35.02 | 286180 | 306806
8 | 68:10.57 | 6:59.53 | 306807 | 338284
Range status and errors
Selected range
Filename F:\Ripped general\[9929] Beethoven - The Symphonies - Leinsdorf\cd3\Beethoven - The Symphonies - Leinsdorf (cd 3).wav
Peak level 99.4 %
Extraction speed 6.3 X
Range quality 100.0 %
Test CRC 3456B279
Copy CRC 3456B279
Copy OK
No errors occurred
AccurateRip summary
Track 1 cannot be verified as accurate (confidence 1) [51A8A53B], AccurateRip returned [52F00A4F] (AR v2)
Track 2 cannot be verified as accurate (confidence 1) [0285E937], AccurateRip returned [FBDB5D1A] (AR v2)
Track 3 cannot be verified as accurate (confidence 1) [090F2041], AccurateRip returned [C1801040] (AR v2)
Track 4 cannot be verified as accurate (confidence 1) [6BDFCA93], AccurateRip returned [84FAC01E] (AR v2)
Track 5 cannot be verified as accurate (confidence 1) [C9EBB3D7], AccurateRip returned [3E51B5AE] (AR v2)
Track 6 cannot be verified as accurate (confidence 1) [D31C3257], AccurateRip returned [B8C1E466] (AR v2)
Track 7 cannot be verified as accurate (confidence 1) [9BCE9336], AccurateRip returned [836B2208] (AR v2)
Track 8 cannot be verified as accurate (confidence 1) [61B2D3AF], AccurateRip returned [C8F86BC6] (AR v2)
No tracks could be verified as accurate
You may have a different pressing from the one(s) in the database
End of status report


CD4

Symphony No. 4 in B flat major, Op. 60
1. I. Adagio - Allegro Vivace
2. II. Adagio
3. III. Menuett- Allegro Vivace - Trio- Un…
4. IV. Allegro Ma Non Troppo
Symphony No. 5 in C minor, Op. 67
5. I. Allegro Con Brio
6. II. Andante Con Moto
7. III. Allegro
8. IV. Allegro - Presto
Recording: (5-8) December 23, 1967 & April 8, 1968

Exact Audio Copy V1.0 beta 3 from 29. August 2011
EAC extraction logfile from 18. March 2012, 13:48
Erich Leinsdorf / Beethoven - The Symphonies - Leinsdorf (cd 4)
Used drive : HL-DT-STDVDRAM GSA-H10A Adapter: 0 ID: 0
Read mode : Secure
Utilize accurate stream : Yes
Defeat audio cache : Yes
Make use of C2 pointers : No
Read offset correction : 667
Overread into Lead-In and Lead-Out : No
Fill up missing offset samples with silence : Yes
Delete leading and trailing silent blocks : No
Null samples used in CRC calculations : Yes
Used interface : Native Win32 interface for Win NT & 2000
Used output format : User Defined Encoder
Selected bitrate : 1024 kBit/s
Quality : High
Add ID3 tag : No
Command line compressor : C:\Program Files\Exact Audio Copy\Flac\flac.exe
Additional command line options : -8 -V -T "TITLE=%title%" -T "ARTIST=%artist%" -T "ALBUMARTIST=%albumartist%" -T "ALBUM=%albumtitle%" -T "DATE=%year%" -T "TRACKNUMBER=%tracknr%" -T "TRACKTOTAL=%numtracks%" -T "GENRE=%genre%" -T "COMMENT=%comment%" -T "PERFORMER=%albuminterpret%" -T "COMPOSER=%composer%" %source% -o %dest%
TOC of the extracted CD
Track | Start | Length | Start sector | End sector
––––––––––––––––––––––––––––-
1 | 0:00.00 | 11:37.70 | 0 | 52344
2 | 11:37.70 | 9:16.65 | 52345 | 94109
3 | 20:54.60 | 6:36.00 | 94110 | 123809
4 | 27:30.60 | 7:12.02 | 123810 | 156211
5 | 34:42.62 | 8:16.03 | 156212 | 193414
6 | 42:58.65 | 9:58.67 | 193415 | 238331
7 | 52:57.57 | 5:06.03 | 238332 | 261284
8 | 58:03.60 | 8:21.65 | 261285 | 298924
Range status and errors
Selected range
Filename F:\Ripped general\[9929] Beethoven - The Symphonies - Leinsdorf\cd4\Beethoven - The Symphonies - Leinsdorf (cd 4).wav
Peak level 97.7 %
Extraction speed 7.3 X
Range quality 99.9 %
Test CRC A3FFCC7A
Copy CRC A3FFCC7A
Copy OK
No errors occurred
AccurateRip summary
Track 1 cannot be verified as accurate (confidence 1) [D24974FF], AccurateRip returned [82E9E3B9] (AR v2)
Track 2 cannot be verified as accurate (confidence 1) [8A8E439A], AccurateRip returned [8B043509] (AR v2)
Track 3 cannot be verified as accurate (confidence 1) [872ACD65], AccurateRip returned [78CAF0B7] (AR v2)
Track 4 cannot be verified as accurate (confidence 1) [3260B946], AccurateRip returned [CFBC297A] (AR v2)
Track 5 cannot be verified as accurate (confidence 1) [EFAB50A8], AccurateRip returned [A482FEE6] (AR v2)
Track 6 cannot be verified as accurate (confidence 1) [EF74A11D], AccurateRip returned [6D6157F2] (AR v2)
Track 7 cannot be verified as accurate (confidence 1) [C0863835], AccurateRip returned [AA829F36] (AR v2)
Track 8 cannot be verified as accurate (confidence 1) [3EE275F2], AccurateRip returned [B8E2F90D] (AR v2)
No tracks could be verified as accurate
You may have a different pressing from the one(s) in the database
End of status report


CD5

Symphony No. 9 in D minor "Choral", Op. 125
1. I. Allegro Ma Non Troppo, Un Poco Maestoso
2. II. Molto Vivace
3. III. Adagio Molto E Cantabile - Andante moderato
4. IV. Presto - Allegro Assai
Recording: Symphony Hall, Boston, USA, April 21/22, 1969

Exact Audio Copy V1.0 beta 3 from 29. August 2011
EAC extraction logfile from 18. March 2012, 15:44
Erich Leinsdorf / Beethoven - The Symphonies - Leinsdorf (cd 5)
Used drive : HL-DT-STDVDRAM GSA-H10A Adapter: 0 ID: 0
Read mode : Secure
Utilize accurate stream : Yes
Defeat audio cache : Yes
Make use of C2 pointers : No
Read offset correction : 667
Overread into Lead-In and Lead-Out : No
Fill up missing offset samples with silence : Yes
Delete leading and trailing silent blocks : No
Null samples used in CRC calculations : Yes
Used interface : Native Win32 interface for Win NT & 2000
Used output format : User Defined Encoder
Selected bitrate : 1024 kBit/s
Quality : High
Add ID3 tag : No
Command line compressor : C:\Program Files\Exact Audio Copy\Flac\flac.exe
Additional command line options : -8 -V -T "TITLE=%title%" -T "ARTIST=%artist%" -T "ALBUMARTIST=%albumartist%" -T "ALBUM=%albumtitle%" -T "DATE=%year%" -T "TRACKNUMBER=%tracknr%" -T "TRACKTOTAL=%numtracks%" -T "GENRE=%genre%" -T "COMMENT=%comment%" -T "PERFORMER=%albuminterpret%" -T "COMPOSER=%composer%" %source% -o %dest%
TOC of the extracted CD
Track | Start | Length | Start sector | End sector
––––––––––––––––––––––––––––-
1 | 0:00.00 | 14:53.28 | 0 | 67002
2 | 14:53.28 | 13:11.50 | 67003 | 126377
3 | 28:05.03 | 14:07.22 | 126378 | 189924
4 | 42:12.25 | 23:35.03 | 189925 | 296052
Range status and errors
Selected range
Filename F:\Ripped general\[9929] Beethoven - The Symphonies - Leinsdorf\cd5\Beethoven - The Symphonies - Leinsdorf (cd 5).wav
Peak level 100.0 %
Extraction speed 7.4 X
Range quality 100.0 %
Test CRC 3C2DAA6B
Copy CRC 3C2DAA6B
Copy OK
No errors occurred
AccurateRip summary
Track 1 not present in database
Track 2 not present in database
Track 3 not present in database
Track 4 not present in database
None of the tracks are present in the AccurateRip database
End of status report



Thanks to the original ripper.

**Follow My Music Blog**