Subcategories

Ergo Sum - Mexico (1971) [Reissue 2007] (Repost)

Posted By: gribovar
Ergo Sum - Mexico (1971) [Reissue 2007] (Repost)

Ergo Sum - Mexico (1971) [Reissue 2007]
EAC Rip | FLAC (image+.cue+log) - 316 MB | MP3 CBR 320 kbps (LAME 3.93) - 122 MB | Covers - 28 MB
Genre: Progressive Rock | RAR 3% Rec. | Label: Lion Productions (LION 618M)

Formerly known as Lemon Pie, this group was formed by singer Ledissez and keyboardist Guerin in 68, Ergo Sum released only one album in 71. This album was the first one on Laurent Thibault's new label Theleme and was recorded at the famous Herouville studios. Singing in English, Ledissez's voice was certainly an acquired taste (reminding of Family's Chapman), but the group's many other assets certainly made up for that: Meynet's violin and Guerin's flute and the frequent use of percussions graced their blending of rock and jazz, but not really being a jazz-rock group either. The group then recorded a single with a fairly different line-up and the last concerts saw François Bréant and Perru (ex-Cruciferus and future solo artist), JM Truong (pre-Zao) and Marc Bertaux. Bréant and Perru will then form Nemo (not to be confused with the 90's French symphonic group though) for one album.

Tracklist:
01. Night Road
02. Unparalleled Embrace
03. John's Nightmare
04. Faces
05. Second Rebirth
06. Mexico
07. I Know Your Mother
08. Albion Impressions
09. Lydie
10. All's So Comic (Bonus track)
11. Tijuana (Bonus track)
12. It's Me (Bonus track)
13. Mexico (Instrumental, Bonus track)

Total time: 52:06

Exact Audio Copy V0.99 prebeta 3 from 28. July 2007

EAC extraction logfile from 20. November 2007, 15:39

Ergo Sum / Mexico

Used drive : LITE-ON DVDRW LH-20A1P Adapter: 0 ID: 2

Read mode : Secure
Utilize accurate stream : Yes
Defeat audio cache : Yes
Make use of C2 pointers : No

Read offset correction : 6
Overread into Lead-In and Lead-Out : No
Fill up missing offset samples with silence : Yes
Delete leading and trailing silent blocks : No
Null samples used in CRC calculations : Yes
Used interface : Installed external ASPI interface

Used output format : Internal WAV Routines
Sample format : 44.100 Hz; 16 Bit; Stereo


TOC of the extracted CD

Track | Start | Length | Start sector | End sector
––––––––––––––––––––––––––––-
1 | 0:00.00 | 3:06.54 | 0 | 14003
2 | 3:06.54 | 2:49.38 | 14004 | 26716
3 | 5:56.17 | 3:58.01 | 26717 | 44567
4 | 9:54.18 | 6:32.54 | 44568 | 74021
5 | 16:26.72 | 4:15.21 | 74022 | 93167
6 | 20:42.18 | 3:36.08 | 93168 | 109375
7 | 24:18.26 | 8:57.09 | 109376 | 149659
8 | 33:15.35 | 4:56.56 | 149660 | 171915
9 | 38:12.16 | 0:59.68 | 171916 | 176408
10 | 39:12.09 | 6:06.56 | 176409 | 203914
11 | 45:18.65 | 3:46.61 | 203915 | 220925
12 | 49:05.51 | 2:06.38 | 220926 | 230413
13 | 51:12.14 | 0:53.41 | 230414 | 234429


Range status and errors

Selected range

Filename D:\flogger77\Ergo Sum - Mexico.wav

Peak level 94.6 %
Range quality 99.9 %
Copy CRC 9E47A32A
Copy OK

No errors occurred


AccurateRip summary

Track 1 not present in database
Track 2 not present in database
Track 3 not present in database
Track 4 not present in database
Track 5 not present in database
Track 6 not present in database
Track 7 not present in database
Track 8 not present in database
Track 9 not present in database
Track 10 not present in database
Track 11 not present in database
Track 12 not present in database
Track 13 not present in database

None of the tracks are present in the AccurateRip database

End of status report

[CUETools log; Date: 15.03.2019 16:43:12; Version: 2.1.4]
[CTDB TOCID: lxQOvevGV4B5TkRNLCN7xj5obIo-] found.
Track | CTDB Status
1 | (3/3) Accurately ripped
2 | (3/3) Accurately ripped
3 | (3/3) Accurately ripped
4 | (3/3) Accurately ripped
5 | (3/3) Accurately ripped
6 | (3/3) Accurately ripped
7 | (3/3) Accurately ripped
8 | (3/3) Accurately ripped
9 | (3/3) Accurately ripped
10 | (3/3) Accurately ripped
11 | (3/3) Accurately ripped
12 | (3/3) Accurately ripped
13 | (3/3) Accurately ripped
[AccurateRip ID: 001ab215-010d7dbf-ce0c350d] disk not present in database.

Track Peak [ CRC32 ] [W/O NULL] [ LOG ]
– 94,6 [9E47A32A] [30E7FB3A] CRC32
01 94,6 [5C30F9F6] [30940CFE]
02 92,2 [995A2DB9] [57C3148B]
03 90,5 [2E1F3210] [6CA68CE6]
04 94,6 [7E120D15] [8F7FD321]
05 92,4 [8F296977] [1E6BBF43]
06 94,6 [BCB394AC] [708210EA]
07 94,6 [DAA817D2] [BB63F4BA]
08 94,6 [DC8A9446] [056C8CB1]
09 61,1 [F2FBA0BB] [BBDDF8D0]
10 94,4 [87BD1753] [6EAFB39B]
11 77,7 [5AAEB56E] [987F429F]
12 76,6 [C65FD733] [D843DBF1]
13 94,5 [81E57E2D] [364C98C9]

Thanks to flogger77