Tags
Language
Tags

Equilibrium - Turis Fratyr (2005) [Reissue 2008] Combined Repost

Posted By: Andi_Deris
Equilibrium - Turis Fratyr (2005) [Reissue 2008] Combined Repost

Equilibrium - Turis Fratyr (2005) [Reissue 2008]
EAC Rip | FLAC: Image+Cue+Log | 467 Mb | MP3 CBR 320 kbps | 149 Mb | Scans | 34 Mb | Time: 58:33
Nuclear Blast Records | NB 2233-2 / 27361 22332
Epic Folk/Viking Metal, Symphonic Black Metal

In 2001, a band was formed in Bavaria, Germany. First, only for one gig, but after the audience was left stunned and begging, the band decided to continue. They chose the name EQUILIBRIUM and released a Demo in 2003. This Demo not only sold like hell but also brought the band a deal with Black Attakk. The collabaration resulted in the amazing debut album "Turis Fratyr", combining Folk Metal with a blend of Pagan and Black Metal. After the release of the album and the good response of fans and the media likewise, the band played several tours and festival gigs (Summer Breeze, Wacken), establishing a huge fanbase all around europe – even though all of the lyrics were in German!

Equilibrium - Turis Fratyr (2005) [Reissue 2008] Combined Repost




Track Listing

01. Turis Fratyr (00:35)
02. Wingthors Hammer (06:41)
03. Unter der Eiche (04:51)
04. Der Sturm (03:45)
05. Widars Hallen (08:17)
06. Met (02:24)
07. Heimdalls Ruf (01:51)
08. Die Prophezeiung (05:19)
09. Nordheim (05:12)
10. Im Fackelschein (01:59)
11. Tote Heldensagen (09:11)
12. Wald der Freiheit (03:01)
13. Shingo Murata (Bonus track) (05:28)

Produced by René Berthiaume

The Band

• Helge Stang - Vocals
• René Berthiaume - Guitar & Keyboards
• Andreas Völkl - Guitar
• Sandra Völkl - Bass
• Julius Koblitzek - Drums
• Manu Di Camillo - Drums (since 2006)

*****
• Gaby Koss - Female Vocals

Exact Audio Copy V1.3 from 2. September 2016

EAC extraction logfile from 3. July 2017, 18:10

Equilibrium / Turis Fratyr

Used drive : ATAPI iHAS122 W Adapter: 2 ID: 0

Read mode : Secure
Utilize accurate stream : Yes
Defeat audio cache : Yes
Make use of C2 pointers : No

Read offset correction : 48
Overread into Lead-In and Lead-Out : No
Fill up missing offset samples with silence : Yes
Delete leading and trailing silent blocks : No
Null samples used in CRC calculations : Yes
Used interface : Installed external ASPI interface

Used output format : User Defined Encoder
Selected bitrate : 1024 kBit/s
Quality : High
Add ID3 tag : No
Command line compressor : C:\Program Files\FLAC\flac.exe
Additional command line options : -V -8 -T "Date=%year%" -T "Genre=%genre%" -T"COMMENT=Ripped by Ilijan - ilko" -8 -V %source%


TOC of the extracted CD

Track | Start | Length | Start sector | End sector
––––––––––––––––––––––––––––-
1 | 0:00.00 | 0:34.68 | 0 | 2617
2 | 0:34.68 | 6:41.11 | 2618 | 32703
3 | 7:16.04 | 4:50.53 | 32704 | 54506
4 | 12:06.57 | 3:45.31 | 54507 | 71412
5 | 15:52.13 | 8:16.67 | 71413 | 108679
6 | 24:09.05 | 2:23.62 | 108680 | 119466
7 | 26:32.67 | 1:51.01 | 119467 | 127792
8 | 28:23.68 | 5:18.58 | 127793 | 151700
9 | 33:42.51 | 5:11.40 | 151701 | 175065
10 | 38:54.16 | 1:58.47 | 175066 | 183962
11 | 40:52.63 | 9:10.68 | 183963 | 225280
12 | 50:03.56 | 3:00.46 | 225281 | 238826
13 | 53:04.27 | 5:27.40 | 238827 | 263391


Range status and errors

Selected range

Filename D:\ilko\Equilibrium - Turis Fratyr.wav

Peak level 100.0 %
Extraction speed 3.8 X
Range quality 99.9 %
Test CRC C0A3B128
Copy CRC C0A3B128
Copy OK

No errors occurred


AccurateRip summary

Track 1 accurately ripped (confidence 4) [47ED4425] (AR v2)
Track 2 accurately ripped (confidence 4) [01B6C845] (AR v2)
Track 3 accurately ripped (confidence 4) [3D181193] (AR v2)
Track 4 accurately ripped (confidence 4) [9F99730F] (AR v2)
Track 5 accurately ripped (confidence 4) [0D0B2F63] (AR v2)
Track 6 accurately ripped (confidence 4) [B2DDD616] (AR v2)
Track 7 accurately ripped (confidence 4) [0E3ADE4B] (AR v2)
Track 8 accurately ripped (confidence 4) [813915D3] (AR v2)
Track 9 accurately ripped (confidence 4) [EDCCD6DE] (AR v2)
Track 10 accurately ripped (confidence 4) [B2D28F8B] (AR v2)
Track 11 accurately ripped (confidence 4) [7DD22CDF] (AR v2)
Track 12 accurately ripped (confidence 4) [2A75F0B6] (AR v2)
Track 13 accurately ripped (confidence 3) [A6AAD8A3] (AR v2)

All tracks accurately ripped

End of status report

–– CUETools DB Plugin V2.1.6

[CTDB TOCID: v3oFyoh_uvu1oEV6te9yqnGhaU8-] found
Submit result: already submitted
Track | CTDB Status
1 | (80/80) Accurately ripped
2 | (80/80) Accurately ripped
3 | (80/80) Accurately ripped
4 | (80/80) Accurately ripped
5 | (80/80) Accurately ripped
6 | (80/80) Accurately ripped
7 | (80/80) Accurately ripped
8 | (80/80) Accurately ripped
9 | (80/80) Accurately ripped
10 | (80/80) Accurately ripped
11 | (80/80) Accurately ripped
12 | (80/80) Accurately ripped
13 | (80/80) Accurately ripped


==== Log checksum 01D22B3A1B0691D9BB1E75CA273D999BCD6425FAA2797739F5FB9D877873F71E ====


Many thanks to the original uploader: Ilijan