Tags
Language
Tags

Enrico Di Felice, Accademia dei Solinghi - Albinoni: L'opera completa per flauto traverso Vol. 1 (1995)

Posted By:
Enrico Di Felice, Accademia dei Solinghi - Albinoni: L'opera completa per flauto traverso Vol. 1 (1995)

Enrico Di Felice, Accademia dei Solinghi - Albinoni: L'opera completa per flauto traverso Vol. 1 (1995)
EAC | FLAC | Image (Cue & Log) ~ 271 Mb | Total time: 56:37 | Scans included
Classical | Label: Stradivarius | # STR 33377 | Recorded: 1994

Enrico Di Felice completed his flute diploma in 1978 with full marks cum laude. His teachers for modern flute were G. Pellegrini and M. Ancillotti and Stephen Preston for the baroque flute. He has performed as soloist in the most prestigious European concert halls, including the Concertgebouw in Amsterdam, the Musikhalle of Hamburg, the Hall of Geneva Conservatoire, as well as Montreal, Tokyo, Dijon, Brussels, Strasbourg, Dresden, Leipzig, Bern, Innsbruck etc. He has also recorded numerous CDs of the most important works for flute by Vivaldi, Albinoni, Telemann, Scarlatti and Monteclair. His CD recording of Pergolesi and Leo’s concertos for flute was given maximum recognition in the prestigious French music publication Diapason. On May 2014 he published a CD with the complete works for flute and piano by Astor Piazzolla (Stradivarius - STR 14001) valued with "Five Stars" by the two best musical italian magazines Amadeus and Musica.

Performer:
Enrico Di Felice, flauto traverso
Accademia dei Solinghi
Liana Mosca e Paola Nervi, violini
Antonio Mosca, violoncello
Rita Peiretti, clavicembalo e direzione

Track List:
Sonata in la minore per flauto traverso e continuo
01. Grave
02. Allegro
03. Adagio
04. Allegro
Sonata in mi maggiore op. post. n. 3 per flauto traverso e continuo
05. Adagio
06. Allegro
07. Largo staccato
08. Giga. Presto
Sonata in re maggiore op. post. n. 5 per flauto traverso e continuo
09. Adagio
10. Allegro
11. Largo affettuoso
12. Giga. Presto
Sonata in si minore op. IV n. 6 per flauto traverso e continuo
13. Largo
14. Allegro
15. Adagio
16. Allegro
Concerto in sol maggiore n. 1 per flauto traverso, due violini e continuo
17. Allegro
18. Adagio
19. Presto
Concerto in sol maggiore n. 2 per flauto traverso, due violini e continuo
20. Allegro
21. Adagio
22. Presto


Exact Audio Copy V1.1 from 23. June 2015

EAC extraction logfile from 8. May 2016, 22:48

Enrico Di Felice, Accademia dei Solinghi, Rita Peiretti / Albinoni - L'opera completa per flauto traverso, Vol. 1

Used drive : ATAPI iHAS324 Y Adapter: 4 ID: 0

Read mode : Secure
Utilize accurate stream : Yes
Defeat audio cache : Yes
Make use of C2 pointers : No

Read offset correction : 48
Overread into Lead-In and Lead-Out : No
Fill up missing offset samples with silence : Yes
Delete leading and trailing silent blocks : No
Null samples used in CRC calculations : Yes
Used interface : Installed external ASPI interface

Used output format : User Defined Encoder
Selected bitrate : 896 kBit/s
Quality : High
Add ID3 tag : No
Command line compressor : F:\Program Files\Exact Audio Copy\Flac\flac.exe
Additional command line options : -8 -V -T "ARTIST=%artist%" -T "TITLE=%title%" -T "ALBUM=%albumtitle%" -T "DATE=%year%" -T "TRACKNUMBER=%tracknr%" -T "GENRE=%genre%" -T "PERFORMER=%albuminterpret%" -T "COMPOSER=%composer%" %haslyrics%–tag-from-file=LYRICS="%lyricsfile%"%haslyrics% -T "ALBUMARTIST=%albumartist%" -T "DISCNUMBER=%cdnumber%" -T "TOTALDISCS=%totalcds%" -T "TOTALTRACKS=%numtracks%" -T "COMMENT=%comment%" %source% -o %dest%


TOC of the extracted CD

Track | Start | Length | Start sector | End sector
––––––––––––––––––––––––––––-
1 | 0:00.32 | 2:05.65 | 32 | 9471
2 | 2:06.22 | 3:57.05 | 9472 | 27251
3 | 6:03.27 | 1:50.40 | 27252 | 35541
4 | 7:53.67 | 2:51.30 | 35542 | 48396
5 | 10:45.22 | 1:59.60 | 48397 | 57381
6 | 12:45.07 | 2:12.18 | 57382 | 67299
7 | 14:57.25 | 2:15.37 | 67300 | 77461
8 | 17:12.62 | 2:22.70 | 77462 | 88181
9 | 19:35.57 | 1:24.48 | 88182 | 94529
10 | 21:00.30 | 2:18.32 | 94530 | 104911
11 | 23:18.62 | 1:31.38 | 104912 | 111774
12 | 24:50.25 | 1:36.35 | 111775 | 119009
13 | 26:26.60 | 1:35.47 | 119010 | 126181
14 | 28:02.32 | 1:50.43 | 126182 | 134474
15 | 29:53.00 | 1:28.35 | 134475 | 141109
16 | 31:21.35 | 1:33.17 | 141110 | 148101
17 | 32:54.52 | 2:56.20 | 148102 | 161321
18 | 35:50.72 | 2:05.13 | 161322 | 170709
19 | 37:56.10 | 2:28.65 | 170710 | 181874
20 | 40:25.00 | 5:37.67 | 181875 | 207216
21 | 46:02.67 | 5:02.25 | 207217 | 229891
22 | 51:05.17 | 5:32.15 | 229892 | 254806


Range status and errors

Selected range

Filename Q:\Music\STR33377\Enrico Di Felice, Accademia dei Solinghi, Rita Peiretti - Albinoni - L'opera completa per flauto traverso, Vol. 1.wav

Peak level 90.9 %
Extraction speed 3.8 X
Range quality 100.0 %
Test CRC BDEAF919
Copy CRC BDEAF919
Copy OK

No errors occurred


AccurateRip summary

Track 1 accurately ripped (confidence 1) [3FA6F87A] (AR v2)
Track 2 accurately ripped (confidence 1) [4131AE7C] (AR v2)
Track 3 accurately ripped (confidence 1) [FAB74D0E] (AR v2)
Track 4 accurately ripped (confidence 1) [7F25B0CD] (AR v2)
Track 5 accurately ripped (confidence 1) [8C32DB9F] (AR v2)
Track 6 accurately ripped (confidence 1) [8B248259] (AR v2)
Track 7 accurately ripped (confidence 1) [034AA609] (AR v2)
Track 8 accurately ripped (confidence 1) [713B42E0] (AR v2)
Track 9 accurately ripped (confidence 1) [4C31AD11] (AR v2)
Track 10 accurately ripped (confidence 1) [17407475] (AR v2)
Track 11 accurately ripped (confidence 1) [17E7D211] (AR v2)
Track 12 accurately ripped (confidence 1) [96D4CB61] (AR v2)
Track 13 accurately ripped (confidence 1) [889FE00E] (AR v2)
Track 14 accurately ripped (confidence 1) [C6992EC2] (AR v2)
Track 15 accurately ripped (confidence 1) [1559319D] (AR v2)
Track 16 accurately ripped (confidence 1) [A5A3DCA0] (AR v2)
Track 17 accurately ripped (confidence 1) [2B44D386] (AR v2)
Track 18 accurately ripped (confidence 1) [07B01121] (AR v2)
Track 19 accurately ripped (confidence 1) [370E05B1] (AR v2)
Track 20 accurately ripped (confidence 1) [683928C0] (AR v2)
Track 21 accurately ripped (confidence 1) [B2A61CF8] (AR v2)
Track 22 accurately ripped (confidence 1) [C4E48FD2] (AR v2)

All tracks accurately ripped

End of status report

–– CUETools DB Plugin V2.1.6

[CTDB TOCID: kCxCzEFHt71b7o1dpAHIP4tOkp4-] found
Submit result: kCxCzEFHt71b7o1dpAHIP4tOkp4- has been confirmed
Track | CTDB Status
1 | (1/1) Accurately ripped
2 | (1/1) Accurately ripped
3 | (1/1) Accurately ripped
4 | (1/1) Accurately ripped
5 | (1/1) Accurately ripped
6 | (1/1) Accurately ripped
7 | (1/1) Accurately ripped
8 | (1/1) Accurately ripped
9 | (1/1) Accurately ripped
10 | (1/1) Accurately ripped
11 | (1/1) Accurately ripped
12 | (1/1) Accurately ripped
13 | (1/1) Accurately ripped
14 | (1/1) Accurately ripped
15 | (1/1) Accurately ripped
16 | (1/1) Accurately ripped
17 | (1/1) Accurately ripped
18 | (1/1) Accurately ripped
19 | (1/1) Accurately ripped
20 | (1/1) Accurately ripped
21 | (1/1) Accurately ripped
22 | (1/1) Accurately ripped


==== Log checksum 8ABBAB1526DA9FD2B932CCD6C7C8714F613069793B404221BAED76639447CAEC ====

Enrico Di Felice, Accademia dei Solinghi - Albinoni: L'opera completa per flauto traverso Vol. 1 (1995)

Thanks to the original releaser