Subcategories

Emmanuelle Haim, Le Concert d’Astree, Sabine Devieilhe, Lea Desandre - Handel: Italian Cantatas (2018)

Posted By: ArlegZ
Emmanuelle Haim, Le Concert d’Astree, Sabine Devieilhe, Lea Desandre - Handel: Italian Cantatas (2018)

Emmanuelle Haïm, Le Concert d’Astrée, Sabine Devieilhe, Léa Desandre - Handel: Italian Cantatas (2018)
EAC | FLAC | Image (Cue & Log) ~ 497 Mb | Total time: 53:25+42:45 | Scans included
Classical | Label: Erato | # 0190295633622 | Recorded: 2018

Handel's Italian cantatas date from early in his career, with few exceptions (none on display here). As a group they are less well-known than his operas, but they're equally virtuosic, and performances of the cantatas whole, as with the three here, are a bit more satisfying than with the operas. The cantatas were composed for parties among powerful Roman cardinals, and they catch the young Handel at the peak of his first success, as Roman audiences hailed him as "il caro Sassone" (the dear Saxon). The arias are fancy and a bit brash, and one key to a good performance is to catch this quality. Both the singers here, French soprano Sabine Devieilhe and French-Italian mezzo Lea Desandre, are up-and-comers, and they offer fine, dramatically enthusiastic performances. The highlight is perhaps the first cantata of the set, Aminta e Fillide, HWV 83, where the contrast between the sparkling Devieilhe and the silvery-voiced Desandre is a pleasure in itself. This is a pastoral where the long-suffering shepherd gets the girl, for a change, even though she dismisses Cupid's charms (sample Desandre in "Fu scherzo, fu gioco," with its quiet high notes). The second and third works are solo cantatas, one for each singer, and Desandre effectively changes gears for subtle interactions with an active continuo cello. Both singers are aided superbly by Le Concert d'Astrée under Emmanuelle Haïm, a veteran group by this time but one that sounds entirely fresh in this delightful vocal program.
–James Manheim

Performer:
Sabine Devieilhe, soprano
Léa Desandre. mezzo-soprano
Le Concert d’Astrée
Emmanuelle Haïm. harpsichord, organ & director

Track List:
CD1:
Aminta E Fillide (Arresta, Arresta Il Passo) HWV 83
01. Introduzione - Recitativo: Arresta, arresta il passo
02. Aria: Fermati, non fuggir!
03. Recitativo: Questa sol volta almeno
04. Aria: Fiamma bella ch'al ciel s'invia
05. Recitativo: Credi a' miei detti, Aminta
06. Aria: Forse ch'un giorno
07. Recitativo: Invano, invan presumi
08. Aria: Fu scherzo, fu gioco
09. Recitativo: Libero piè fugga dal laccio
10. Aria: Se vago rio fra sassi
11. Recitativo: D'un incognito foco gia sento
12. Aria: Sento ch'il Dio bambin
13. Recitativo: Felicissimo punto
14. Aria: A dispetto di sorte crudele
15. Recitativo: Vincesti, Aminta
16. Aria: È un foco quel d'amore
17. Recitativo: Gloria bella di Aminta
18. Aria: Chi ben ama non paventi
19. Recitativo: E pur, Filli vezzosa
20. Aria: Non si può dar un cor sì felice in amor
21. Recitativo: O felice in amor dolce tormento
22. Duetto: Per abbatter il rigore
CD2:
Armida Abbandonata (Dietro L'Orme Fugaci) HWV 105
01. Recitativo: Dietro l'orme fugaci
02. Aria: Ah crudele! E pur ten' vai
03. Recitativo: Per te mi struggo, infido
04. Accompagnato: O voi, dell'incostante e procellosos mare orridi mostri
05. Aria: Venti, fermate
06. Recitativo: Ma che parlo, che dico?
07. Siciliana: In tanti affanni miei
Trio Sonata in B minor Op. 2/1 HWV 386b for 2 violins & basso continuo
08. I. Andante
09. II. Allegro
10. III. Largo
11. IV. Allegro
La Lucrezia (O Numi Eterni) HWV 145, Cantata for soprano & basso continuo
12. Recitativo: O Numi eterni!
13. Aria: Già superbo del mio affanno
14. Recitativo: Ma voi forse nel cielo
15. Aria: Il suol che preme
16. Recitativo: Ah! che ancor nell'abisso
17. Furioso: Questi la disperata anima mia
18. Aria: Alla salma infedel
19, Recitativo: A voi, Padre, consorte
20. Arioso: Già nel seno comincia a compir questo ferro i duri uffizii
21. Furioso: Ma se qui non m'è dato


Exact Audio Copy V1.3 from 2. September 2016

EAC extraction logfile from 13. March 2019, 12:46

Sabine Devieilhe, Léa Desandre; Emmanuelle Haïm / Handel - Italian Cantatas (Disc 1)

Used drive : ATAPI iHAS124 F Adapter: 1 ID: 0

Read mode : Secure
Utilize accurate stream : Yes
Defeat audio cache : Yes
Make use of C2 pointers : No

Read offset correction : 6
Overread into Lead-In and Lead-Out : No
Fill up missing offset samples with silence : Yes
Delete leading and trailing silent blocks : No
Null samples used in CRC calculations : Yes
Used interface : Native Win32 interface for Win NT & 2000

Used output format : User Defined Encoder
Selected bitrate : 1024 kBit/s
Quality : High
Add ID3 tag : No
Command line compressor : C:\Program Files (x86)\Exact Audio Copy\FLAC\FLAC.EXE
Additional command line options : -6 -V -T "ARTIST=%artist%" -T "TITLE=%title%" -T "ALBUM=%albumtitle%" -T "DATE=%year%" -T "TRACKNUMBER=%tracknr%" -T "GENRE=%genre%" -T "COMMENT=%comment%" -T "BAND=%albuminterpret%" -T "ALBUMARTIST=%albuminterpret%" -T "COMPOSER=%composer%" %haslyrics%–tag-from-file=LYRICS="%lyricsfile%"%haslyrics% -T "DISCNUMBER=%cdnumber%" -T "TOTALDISCS=%totalcds%" -T "TOTALTRACKS=%numtracks%" %hascover%–picture="%coverfile%"%hascover% %source% -o %dest%


TOC of the extracted CD

Track | Start | Length | Start sector | End sector
––––––––––––––––––––––––––––-
1 | 0:00.00 | 2:02.25 | 0 | 9174
2 | 2:02.25 | 3:04.04 | 9175 | 22978
3 | 5:06.29 | 0:38.17 | 22979 | 25845
4 | 5:44.46 | 4:33.11 | 25846 | 46331
5 | 10:17.57 | 0:34.61 | 46332 | 48942
6 | 10:52.43 | 3:11.39 | 48943 | 63306
7 | 14:04.07 | 1:16.70 | 63307 | 69076
8 | 15:21.02 | 5:15.23 | 69077 | 92724
9 | 20:36.25 | 1:23.43 | 92725 | 98992
10 | 21:59.68 | 3:16.27 | 98993 | 113719
11 | 25:16.20 | 0:32.10 | 113720 | 116129
12 | 25:48.30 | 4:13.38 | 116130 | 135142
13 | 30:01.68 | 0:17.17 | 135143 | 136434
14 | 30:19.10 | 4:31.06 | 136435 | 156765
15 | 34:50.16 | 0:39.48 | 156766 | 159738
16 | 35:29.64 | 3:05.45 | 159739 | 173658
17 | 38:35.34 | 0:42.56 | 173659 | 176864
18 | 39:18.15 | 3:20.21 | 176865 | 191885
19 | 42:38.36 | 0:27.04 | 191886 | 193914
20 | 43:05.40 | 4:48.14 | 193915 | 215528
21 | 47:53.54 | 0:13.56 | 215529 | 216559
22 | 48:07.35 | 5:17.70 | 216560 | 240404


Range status and errors

Selected range

Filename C:\EACRip\00 - DO PRZENIESIENIA\3 niedziela\Handel - Italian Cantatas (Emmanuelle Haim) (2018)\CD1\Handel - Italian Cantatas (Disc 1) - Emmanuelle Haim.wav

Peak level 97.0 %
Extraction speed 8.1 X
Range quality 100.0 %
Test CRC 00CF2B0A
Copy CRC 00CF2B0A
Copy OK

No errors occurred


AccurateRip summary

Track 1 not present in database
Track 2 not present in database
Track 3 not present in database
Track 4 not present in database
Track 5 not present in database
Track 6 not present in database
Track 7 not present in database
Track 8 not present in database
Track 9 not present in database
Track 10 not present in database
Track 11 not present in database
Track 12 not present in database
Track 13 not present in database
Track 14 not present in database
Track 15 not present in database
Track 16 not present in database
Track 17 not present in database
Track 18 not present in database
Track 19 not present in database
Track 20 not present in database
Track 21 not present in database
Track 22 not present in database

None of the tracks are present in the AccurateRip database

End of status report

–– CUETools DB Plugin V2.1.6

[CTDB TOCID: _47reVcDwy83GJNrmQsx.dnagIY-] found
Submit result: _47reVcDwy83GJNrmQsx.dnagIY- has been confirmed
Track | CTDB Status
1 | (10/10) Accurately ripped
2 | (10/10) Accurately ripped
3 | (10/10) Accurately ripped
4 | (10/10) Accurately ripped
5 | (10/10) Accurately ripped
6 | (10/10) Accurately ripped
7 | (10/10) Accurately ripped
8 | (10/10) Accurately ripped
9 | (10/10) Accurately ripped
10 | (10/10) Accurately ripped
11 | (10/10) Accurately ripped
12 | (10/10) Accurately ripped
13 | (10/10) Accurately ripped
14 | (10/10) Accurately ripped
15 | (10/10) Accurately ripped
16 | (10/10) Accurately ripped
17 | (10/10) Accurately ripped
18 | (10/10) Accurately ripped
19 | (10/10) Accurately ripped
20 | (10/10) Accurately ripped
21 | (10/10) Accurately ripped
22 | (10/10) Accurately ripped


==== Log checksum 269FC02E395F2760CB4031CA3E50692872C67EAEDF1284CA3480DBE6A644AFA6 ====


Exact Audio Copy V1.3 from 2. September 2016

EAC extraction logfile from 13. March 2019, 13:34

Sabine Devieilhe, Léa Desandre; Emmanuelle Haïm / Handel - Italian Cantatas (Disc 2)

Used drive : ATAPI iHAS124 F Adapter: 1 ID: 0

Read mode : Secure
Utilize accurate stream : Yes
Defeat audio cache : Yes
Make use of C2 pointers : No

Read offset correction : 6
Overread into Lead-In and Lead-Out : No
Fill up missing offset samples with silence : Yes
Delete leading and trailing silent blocks : No
Null samples used in CRC calculations : Yes
Used interface : Native Win32 interface for Win NT & 2000

Used output format : User Defined Encoder
Selected bitrate : 1024 kBit/s
Quality : High
Add ID3 tag : No
Command line compressor : C:\Program Files (x86)\Exact Audio Copy\FLAC\FLAC.EXE
Additional command line options : -6 -V -T "ARTIST=%artist%" -T "TITLE=%title%" -T "ALBUM=%albumtitle%" -T "DATE=%year%" -T "TRACKNUMBER=%tracknr%" -T "GENRE=%genre%" -T "COMMENT=%comment%" -T "BAND=%albuminterpret%" -T "ALBUMARTIST=%albuminterpret%" -T "COMPOSER=%composer%" %haslyrics%–tag-from-file=LYRICS="%lyricsfile%"%haslyrics% -T "DISCNUMBER=%cdnumber%" -T "TOTALDISCS=%totalcds%" -T "TOTALTRACKS=%numtracks%" %hascover%–picture="%coverfile%"%hascover% %source% -o %dest%


TOC of the extracted CD

Track | Start | Length | Start sector | End sector
––––––––––––––––––––––––––––-
1 | 0:00.00 | 1:07.45 | 0 | 5069
2 | 1:07.45 | 5:05.25 | 5070 | 27969
3 | 6:12.70 | 0:25.33 | 27970 | 29877
4 | 6:38.28 | 0:44.06 | 29878 | 33183
5 | 7:22.34 | 2:41.29 | 33184 | 45287
6 | 10:03.63 | 1:02.70 | 45288 | 50007
7 | 11:06.58 | 4:40.68 | 50008 | 71075
8 | 15:47.51 | 3:15.37 | 71076 | 85737
9 | 19:03.13 | 2:42.23 | 85738 | 97910
10 | 21:45.36 | 2:57.54 | 97911 | 111239
11 | 24:43.15 | 2:00.21 | 111240 | 120260
12 | 26:43.36 | 0:50.74 | 120261 | 124084
13 | 27:34.35 | 4:18.15 | 124085 | 143449
14 | 31:52.50 | 0:43.49 | 143450 | 146723
15 | 32:36.24 | 3:06.39 | 146724 | 160712
16 | 35:42.63 | 0:37.27 | 160713 | 163514
17 | 36:20.15 | 0:33.36 | 163515 | 166025
18 | 36:53.51 | 3:11.34 | 166026 | 180384
19 | 40:05.10 | 0:51.68 | 180385 | 184277
20 | 40:57.03 | 1:16.16 | 184278 | 189993
21 | 42:13.19 | 0:32.13 | 189994 | 192406


Range status and errors

Selected range

Filename C:\EACRip\00 - DO PRZENIESIENIA\3 niedziela\Handel - Italian Cantatas (Emmanuelle Haim) (2018)\CD2\Handel - Italian Cantatas (Disc 2) - Emmanuelle Haim.wav

Peak level 95.6 %
Extraction speed 7.5 X
Range quality 100.0 %
Test CRC 43984C86
Copy CRC 43984C86
Copy OK

No errors occurred


AccurateRip summary

Track 1 not present in database
Track 2 not present in database
Track 3 not present in database
Track 4 not present in database
Track 5 not present in database
Track 6 not present in database
Track 7 not present in database
Track 8 not present in database
Track 9 not present in database
Track 10 not present in database
Track 11 not present in database
Track 12 not present in database
Track 13 not present in database
Track 14 not present in database
Track 15 not present in database
Track 16 not present in database
Track 17 not present in database
Track 18 not present in database
Track 19 not present in database
Track 20 not present in database
Track 21 not present in database

None of the tracks are present in the AccurateRip database

End of status report

–– CUETools DB Plugin V2.1.6

[CTDB TOCID: 3MM.cE8T2sKQ1E.xSfw.6BkRyGM-] found
Submit result: 3MM.cE8T2sKQ1E.xSfw.6BkRyGM- has been confirmed
Track | CTDB Status
1 | (9/9) Accurately ripped
2 | (9/9) Accurately ripped
3 | (9/9) Accurately ripped
4 | (9/9) Accurately ripped
5 | (9/9) Accurately ripped
6 | (9/9) Accurately ripped
7 | (9/9) Accurately ripped
8 | (9/9) Accurately ripped
9 | (9/9) Accurately ripped
10 | (9/9) Accurately ripped
11 | (9/9) Accurately ripped
12 | (9/9) Accurately ripped
13 | (9/9) Accurately ripped
14 | (9/9) Accurately ripped
15 | (9/9) Accurately ripped
16 | (9/9) Accurately ripped
17 | (9/9) Accurately ripped
18 | (9/9) Accurately ripped
19 | (9/9) Accurately ripped
20 | (9/9) Accurately ripped
21 | (9/9) Accurately ripped


==== Log checksum 5512D6B74A4CF09C43B3A55ABBE4274BA1BB177A8BF32AE1E76BBFC8CAC1D022 ====

Emmanuelle Haim, Le Concert d’Astree, Sabine Devieilhe, Lea Desandre - Handel: Italian Cantatas (2018)

Thanks to the original releaser