Subcategories
Tags
Language
Tags

Emerson, Lake & Palmer - Fanfare For The Common Man: The Anthology (2001) [Re-Up]

Posted By: Designol
Emerson, Lake & Palmer - Fanfare For The Common Man: The Anthology (2001) [Re-Up]

Emerson, Lake & Palmer - Fanfare For The Common Man: The Anthology (2001) 2CDs
EAC | FLAC | Tracks (Cue&Log) ~ 916 Mb | Mp3 (CBR320) ~ 337 Mb | Scans included
Art Rock, Progressive Rock, Fusion | Label: Castle/Sanctuary | # CMEDD110 | Time: 02:21:08

24 track anthology for one of the most phenomenally successful acts of the early to mid 1970s. Digitally remastered from original tapes and compiled in conjunction with the band. Highlights include, 'Fanfare For The Common Man', 'The Barbarian', 'Take A Pebble' and 'Lucky Man'.

ELP finally sound as they should! The new 2001 releases of their material means that finally the remastering they deserve is done. The sound is clear and warm and far superior to any previous release, even better than the "Atlantic Years"-collection! Of course any collection of a band as diverse as ELP will mean some compromise. However, I think this collection it the best introduction available to the band's wide range of musical styles, from beautiful ballads to aggressive jams. Its difficult to find other bands even close to such variety of moods and music.

Review by Bjrn Are Davidsen, Amazon.co.uk

ELP at Allmusic
ELP Website
ELP at Wiki

Tracklist:

CD1:

01. Barbarian (04:30)
02. Take A Pebble (12:29)
03. Knife Edge (05:06)
04. Lucky Man (04:39)
05. Tarkus (20:39)
06. Jeremy Bender (01:49)
07. Sheriff (03:22)
08. Nutrocker (03:58)
09. Living Sin (03:13)
10. Endless Enigma (06:43)

CD2:

01. From The Beginning (04:16)
02. Hoedown (03:46)
03. Trlogy (08:53)
04. Jerusalem (02:46)
05. Still.. You Turn Me On (02:54)
06. Karn Evil 9 - 1st Impression, Part 2 (04:49)
07. Fanfare For The Common Man (09:43)
08. C'est La Vie (04:19)
09. Pirates (13:20)
10. Brain Salad Surgery (03:08)
11. Honky Tonk Train Blues (03:11)
12. Love Beach (02:45)
13. Black Moon (06:57)
14. Affairs Of The Heart (03:43)


Exact Audio Copy V1.0 beta 3 from 29. August 2011

EAC extraction logfile from 5. August 2014, 16:59

Emerson Lake & Palmer / Fanfare For The Common Man - The Anthology CD01

Used drive : HL-DT-STDVDRAM GSA-T50L Adapter: 1 ID: 0

Read mode : Secure
Utilize accurate stream : Yes
Defeat audio cache : No
Make use of C2 pointers : No

Read offset correction : 667
Overread into Lead-In and Lead-Out : No
Fill up missing offset samples with silence : Yes
Delete leading and trailing silent blocks : No
Null samples used in CRC calculations : Yes
Used interface : Native Win32 interface for Win NT & 2000
Gap handling : Appended to previous track

Used output format : User Defined Encoder
Selected bitrate : 1024 kBit/s
Quality : High
Add ID3 tag : No
Command line compressor : C:\Program Files\Exact Audio Copy\Flac\flac.exe
Additional command line options : -8 -V -T "ARTIST=%artist%" -T "TITLE=%title%" -T "ALBUM=%albumtitle%" -T "DATE=%year%" -T "TRACKNUMBER=%tracknr%" -T "GENRE=%genre%" -T "PERFORMER=%albuminterpret%" -T "COMPOSER=%composer%" %haslyrics%–tag-from-file=LYRICS="%lyricsfile%"%haslyrics% -T "ALBUMARTIST=%albumartist%" -T "DISCNUMBER=%cdnumber%" -T "TOTALDISCS=%totalcds%" -T "TOTALTRACKS=%numtracks%" -T "COMMENT=%comment%" %source% -o %dest%


TOC of the extracted CD

Track | Start | Length | Start sector | End sector
––––––––––––––––––––––––––––-
1 | 0:00.00 | 4:30.62 | 0 | 20311
2 | 4:30.62 | 12:29.48 | 20312 | 76534
3 | 17:00.35 | 5:06.12 | 76535 | 99496
4 | 22:06.47 | 4:39.38 | 99497 | 120459
5 | 26:46.10 | 20:39.72 | 120460 | 213456
6 | 47:26.07 | 1:49.05 | 213457 | 221636
7 | 49:15.12 | 3:22.50 | 221637 | 236836
8 | 52:37.62 | 3:58.38 | 236837 | 254724
9 | 56:36.25 | 3:13.40 | 254725 | 269239
10 | 59:49.65 | 6:43.00 | 269240 | 299464


Track 1

Filename C:\FLAC\01 Barbarian.wav

Pre-gap length 0:00:02.00

Peak level 97.4 %
Extraction speed 4.3 X
Track quality 100.0 %
Test CRC 77536185
Copy CRC 77536185
Accurately ripped (confidence 10) [3F47A2E6] (AR v2)
Copy OK

Track 2

Filename C:\FLAC\02 Take A Pebble.wav

Pre-gap length 0:00:03.16

Peak level 97.7 %
Extraction speed 5.3 X
Track quality 99.9 %
Test CRC 0913FFE7
Copy CRC 0913FFE7
Accurately ripped (confidence 10) [2F623AE9] (AR v2)
Copy OK

Track 3

Filename C:\FLAC\03 Knife Edge.wav

Pre-gap length 0:00:02.97

Peak level 97.4 %
Extraction speed 6.2 X
Track quality 100.0 %
Test CRC 099B02C2
Copy CRC 099B02C2
Accurately ripped (confidence 10) [17B4A3B0] (AR v2)
Copy OK

Track 4

Filename C:\FLAC\04 Lucky Man.wav

Pre-gap length 0:00:02.96

Peak level 97.4 %
Extraction speed 6.4 X
Track quality 99.9 %
Test CRC 111C8D1D
Copy CRC 111C8D1D
Accurately ripped (confidence 10) [2C805FFC] (AR v2)
Copy OK

Track 5

Filename C:\FLAC\05 Tarkus.wav

Pre-gap length 0:00:02.97

Peak level 97.4 %
Extraction speed 7.5 X
Track quality 100.0 %
Test CRC B3E70E38
Copy CRC B3E70E38
Accurately ripped (confidence 10) [66C7CA5D] (AR v2)
Copy OK

Track 6

Filename C:\FLAC\06 Jeremy Bender.wav

Pre-gap length 0:00:02.96

Peak level 86.5 %
Extraction speed 7.7 X
Track quality 100.0 %
Test CRC D697F574
Copy CRC D697F574
Accurately ripped (confidence 10) [544F7580] (AR v2)
Copy OK

Track 7

Filename C:\FLAC\07 Sheriff.wav

Pre-gap length 0:00:02.96

Peak level 97.7 %
Extraction speed 8.2 X
Track quality 100.0 %
Test CRC 5445A907
Copy CRC 5445A907
Accurately ripped (confidence 10) [5C44FB63] (AR v2)
Copy OK

Track 8

Filename C:\FLAC\08 Nutrocker.wav

Pre-gap length 0:00:02.96

Peak level 97.4 %
Extraction speed 8.7 X
Track quality 100.0 %
Test CRC CF62A2AE
Copy CRC CF62A2AE
Accurately ripped (confidence 10) [90BB133F] (AR v2)
Copy OK

Track 9

Filename C:\FLAC\09 Living Sin.wav

Pre-gap length 0:00:02.97

Peak level 97.4 %
Extraction speed 8.4 X
Track quality 99.9 %
Test CRC D7D863EF
Copy CRC D7D863EF
Accurately ripped (confidence 10) [396C29B1] (AR v2)
Copy OK

Track 10

Filename C:\FLAC\10 Endless Enigma.wav

Pre-gap length 0:00:02.97

Peak level 97.4 %
Extraction speed 9.0 X
Track quality 100.0 %
Test CRC 8E3BF046
Copy CRC 8E3BF046
Accurately ripped (confidence 9) [F4EF5A3B] (AR v2)
Copy OK


All tracks accurately ripped

No errors occurred

End of status report

–– CUETools DB Plugin V2.1.3

[CTDB TOCID: MY1PqumW7PpszGvi7jiJvREdjgo-] found, Submit result: MY1PqumW7PpszGvi7jiJvREdjgo- has been confirmed
[adae30c3] (19/22) Accurately ripped
[e95f6ec8] (01/22) Differs in 2 samples @62:20:03
[e6cf7fb3] (01/22) Differs in 6 samples @22:33:37,52:38:07-52:38:08
[b2f26673] (01/22) Differs in 212 samples @49:15:71,49:16:12-49:16:13
You can use CUETools to repair this rip.


==== Log checksum 9DBF486EE36A3D72714B1601BDC15A2ADD1457FD6FD0F05C92372C496B6037E8 ====

––––––––––––––––––––––––––––––

Exact Audio Copy V1.0 beta 3 from 29. August 2011

EAC extraction logfile from 5. August 2014, 16:59

Emerson Lake & Palmer / Fanfare For The Common Man - The Anthology CD01

Used drive : HL-DT-STDVDRAM GSA-T50L Adapter: 1 ID: 0

Read mode : Secure
Utilize accurate stream : Yes
Defeat audio cache : No
Make use of C2 pointers : No

Read offset correction : 667
Overread into Lead-In and Lead-Out : No
Fill up missing offset samples with silence : Yes
Delete leading and trailing silent blocks : No
Null samples used in CRC calculations : Yes
Used interface : Native Win32 interface for Win NT & 2000
Gap handling : Appended to previous track

Used output format : User Defined Encoder
Selected bitrate : 1024 kBit/s
Quality : High
Add ID3 tag : No
Command line compressor : C:\Program Files\Exact Audio Copy\Flac\flac.exe
Additional command line options : -8 -V -T "ARTIST=%artist%" -T "TITLE=%title%" -T "ALBUM=%albumtitle%" -T "DATE=%year%" -T "TRACKNUMBER=%tracknr%" -T "GENRE=%genre%" -T "PERFORMER=%albuminterpret%" -T "COMPOSER=%composer%" %haslyrics%–tag-from-file=LYRICS="%lyricsfile%"%haslyrics% -T "ALBUMARTIST=%albumartist%" -T "DISCNUMBER=%cdnumber%" -T "TOTALDISCS=%totalcds%" -T "TOTALTRACKS=%numtracks%" -T "COMMENT=%comment%" %source% -o %dest%


TOC of the extracted CD

Track | Start | Length | Start sector | End sector
––––––––––––––––––––––––––––-
1 | 0:00.00 | 4:30.62 | 0 | 20311
2 | 4:30.62 | 12:29.48 | 20312 | 76534
3 | 17:00.35 | 5:06.12 | 76535 | 99496
4 | 22:06.47 | 4:39.38 | 99497 | 120459
5 | 26:46.10 | 20:39.72 | 120460 | 213456
6 | 47:26.07 | 1:49.05 | 213457 | 221636
7 | 49:15.12 | 3:22.50 | 221637 | 236836
8 | 52:37.62 | 3:58.38 | 236837 | 254724
9 | 56:36.25 | 3:13.40 | 254725 | 269239
10 | 59:49.65 | 6:43.00 | 269240 | 299464


Track 1

Filename C:\FLAC\01 Barbarian.wav

Pre-gap length 0:00:02.00

Peak level 97.4 %
Extraction speed 4.3 X
Track quality 100.0 %
Test CRC 77536185
Copy CRC 77536185
Accurately ripped (confidence 10) [3F47A2E6] (AR v2)
Copy OK

Track 2

Filename C:\FLAC\02 Take A Pebble.wav

Pre-gap length 0:00:03.16

Peak level 97.7 %
Extraction speed 5.3 X
Track quality 99.9 %
Test CRC 0913FFE7
Copy CRC 0913FFE7
Accurately ripped (confidence 10) [2F623AE9] (AR v2)
Copy OK

Track 3

Filename C:\FLAC\03 Knife Edge.wav

Pre-gap length 0:00:02.97

Peak level 97.4 %
Extraction speed 6.2 X
Track quality 100.0 %
Test CRC 099B02C2
Copy CRC 099B02C2
Accurately ripped (confidence 10) [17B4A3B0] (AR v2)
Copy OK

Track 4

Filename C:\FLAC\04 Lucky Man.wav

Pre-gap length 0:00:02.96

Peak level 97.4 %
Extraction speed 6.4 X
Track quality 99.9 %
Test CRC 111C8D1D
Copy CRC 111C8D1D
Accurately ripped (confidence 10) [2C805FFC] (AR v2)
Copy OK

Track 5

Filename C:\FLAC\05 Tarkus.wav

Pre-gap length 0:00:02.97

Peak level 97.4 %
Extraction speed 7.5 X
Track quality 100.0 %
Test CRC B3E70E38
Copy CRC B3E70E38
Accurately ripped (confidence 10) [66C7CA5D] (AR v2)
Copy OK

Track 6

Filename C:\FLAC\06 Jeremy Bender.wav

Pre-gap length 0:00:02.96

Peak level 86.5 %
Extraction speed 7.7 X
Track quality 100.0 %
Test CRC D697F574
Copy CRC D697F574
Accurately ripped (confidence 10) [544F7580] (AR v2)
Copy OK

Track 7

Filename C:\FLAC\07 Sheriff.wav

Pre-gap length 0:00:02.96

Peak level 97.7 %
Extraction speed 8.2 X
Track quality 100.0 %
Test CRC 5445A907
Copy CRC 5445A907
Accurately ripped (confidence 10) [5C44FB63] (AR v2)
Copy OK

Track 8

Filename C:\FLAC\08 Nutrocker.wav

Pre-gap length 0:00:02.96

Peak level 97.4 %
Extraction speed 8.7 X
Track quality 100.0 %
Test CRC CF62A2AE
Copy CRC CF62A2AE
Accurately ripped (confidence 10) [90BB133F] (AR v2)
Copy OK

Track 9

Filename C:\FLAC\09 Living Sin.wav

Pre-gap length 0:00:02.97

Peak level 97.4 %
Extraction speed 8.4 X
Track quality 99.9 %
Test CRC D7D863EF
Copy CRC D7D863EF
Accurately ripped (confidence 10) [396C29B1] (AR v2)
Copy OK

Track 10

Filename C:\FLAC\10 Endless Enigma.wav

Pre-gap length 0:00:02.97

Peak level 97.4 %
Extraction speed 9.0 X
Track quality 100.0 %
Test CRC 8E3BF046
Copy CRC 8E3BF046
Accurately ripped (confidence 9) [F4EF5A3B] (AR v2)
Copy OK


All tracks accurately ripped

No errors occurred

End of status report

–– CUETools DB Plugin V2.1.3

[CTDB TOCID: MY1PqumW7PpszGvi7jiJvREdjgo-] found, Submit result: MY1PqumW7PpszGvi7jiJvREdjgo- has been confirmed
[adae30c3] (19/22) Accurately ripped
[e95f6ec8] (01/22) Differs in 2 samples @62:20:03
[e6cf7fb3] (01/22) Differs in 6 samples @22:33:37,52:38:07-52:38:08
[b2f26673] (01/22) Differs in 212 samples @49:15:71,49:16:12-49:16:13
You can use CUETools to repair this rip.


==== Log checksum 9DBF486EE36A3D72714B1601BDC15A2ADD1457FD6FD0F05C92372C496B6037E8 ====

foobar2000 1.2 / Dynamic Range Meter 1.1.1
log date: 2014-08-10 16:29:30

––––––––––––––––––––––––––––––––––––––––
Analyzed: Emerson Lake & Palmer / Fanfare For The Common Man - The Anthology CD01
––––––––––––––––––––––––––––––––––––––––

DR Peak RMS Duration Track
––––––––––––––––––––––––––––––––––––––––
DR9 -0.22 dB -12.43 dB 4:31 01-Barbarian
DR11 -0.20 dB -14.93 dB 12:30 02-Take A Pebble
DR9 -0.22 dB -12.30 dB 5:06 03-Knife Edge
DR8 -0.22 dB -10.95 dB 4:40 04-Lucky Man
DR8 -0.22 dB -10.43 dB 20:40 05-Tarkus
DR13 -1.25 dB -16.05 dB 1:49 06-Jeremy Bender
DR10 -0.20 dB -12.09 dB 3:23 07-Sheriff
DR10 -0.22 dB -12.94 dB 3:59 08-Nutrocker
DR11 -0.22 dB -13.02 dB 3:14 09-Living Sin
DR10 -0.22 dB -14.83 dB 6:43 10-Endless Enigma
––––––––––––––––––––––––––––––––––––––––

Number of tracks: 10
Official DR value: DR10

Samplerate: 44100 Hz
Channels: 2
Bits per sample: 16
Bitrate: 731 kbps
Codec: FLAC
================================================================================


Exact Audio Copy V1.0 beta 3 from 29. August 2011

EAC extraction logfile from 5. August 2014, 22:44

Emerson Lake & Palmer / Fanfare For The Common Man - The Anthology CD02

Used drive : HL-DT-STDVDRAM GSA-T50L Adapter: 1 ID: 0

Read mode : Secure
Utilize accurate stream : Yes
Defeat audio cache : No
Make use of C2 pointers : No

Read offset correction : 667
Overread into Lead-In and Lead-Out : No
Fill up missing offset samples with silence : Yes
Delete leading and trailing silent blocks : No
Null samples used in CRC calculations : Yes
Used interface : Native Win32 interface for Win NT & 2000
Gap handling : Appended to previous track

Used output format : User Defined Encoder
Selected bitrate : 1024 kBit/s
Quality : High
Add ID3 tag : No
Command line compressor : C:\Program Files\Exact Audio Copy\Flac\flac.exe
Additional command line options : -8 -V -T "ARTIST=%artist%" -T "TITLE=%title%" -T "ALBUM=%albumtitle%" -T "DATE=%year%" -T "TRACKNUMBER=%tracknr%" -T "GENRE=%genre%" -T "PERFORMER=%albuminterpret%" -T "COMPOSER=%composer%" %haslyrics%–tag-from-file=LYRICS="%lyricsfile%"%haslyrics% -T "ALBUMARTIST=%albumartist%" -T "DISCNUMBER=%cdnumber%" -T "TOTALDISCS=%totalcds%" -T "TOTALTRACKS=%numtracks%" -T "COMMENT=%comment%" %source% -o %dest%


TOC of the extracted CD

Track | Start | Length | Start sector | End sector
––––––––––––––––––––––––––––-
1 | 0:00.00 | 4:16.15 | 0 | 19214
2 | 4:16.15 | 3:46.00 | 19215 | 36164
3 | 8:02.15 | 8:53.45 | 36165 | 76184
4 | 16:55.60 | 2:46.40 | 76185 | 88674
5 | 19:42.25 | 2:54.32 | 88675 | 101756
6 | 22:36.57 | 4:49.13 | 101757 | 123444
7 | 27:25.70 | 9:43.52 | 123445 | 167221
8 | 37:09.47 | 4:19.18 | 167222 | 186664
9 | 41:28.65 | 13:20.42 | 186665 | 246706
10 | 54:49.32 | 3:08.35 | 246707 | 260841
11 | 57:57.67 | 3:11.43 | 260842 | 275209
12 | 61:09.35 | 2:45.20 | 275210 | 287604
13 | 63:54.55 | 6:57.37 | 287605 | 318916
14 | 70:52.17 | 3:43.23 | 318917 | 335664


Track 1

Filename C:\FLAC\01 From The Beginning.wav

Pre-gap length 0:00:02.00

Peak level 95.6 %
Extraction speed 4.3 X
Track quality 100.0 %
Test CRC FFDFEF61
Copy CRC FFDFEF61
Accurately ripped (confidence 13) [AE7E24DB] (AR v2)
Copy OK

Track 2

Filename C:\FLAC\02 Hoedown.wav

Pre-gap length 0:00:02.64

Peak level 97.4 %
Extraction speed 4.7 X
Track quality 100.0 %
Test CRC 497CD7A0
Copy CRC 497CD7A0
Accurately ripped (confidence 13) [CB6950D6] (AR v2)
Copy OK

Track 3

Filename C:\FLAC\03 Trlogy.wav

Pre-gap length 0:00:02.64

Peak level 77.4 %
Extraction speed 5.4 X
Track quality 100.0 %
Test CRC 77951069
Copy CRC 77951069
Accurately ripped (confidence 13) [63426B2E] (AR v2)
Copy OK

Track 4

Filename C:\FLAC\04 Jerusalem.wav

Pre-gap length 0:00:02.64

Peak level 97.7 %
Extraction speed 5.7 X
Track quality 100.0 %
Test CRC 81B1898B
Copy CRC 81B1898B
Accurately ripped (confidence 13) [7E440D1E] (AR v2)
Copy OK

Track 5

Filename C:\FLAC\05 Still.. You Turn Me On.wav

Pre-gap length 0:00:02.64

Peak level 97.7 %
Extraction speed 6.2 X
Track quality 100.0 %
Test CRC D9C72991
Copy CRC D9C72991
Accurately ripped (confidence 13) [81CCED8B] (AR v2)
Copy OK

Track 6

Filename C:\FLAC\06 Karn Evil 9 - 1st Impression, Part 2.wav

Pre-gap length 0:00:02.62

Peak level 97.4 %
Extraction speed 6.3 X
Track quality 99.9 %
Test CRC D0C36C1B
Copy CRC D0C36C1B
Accurately ripped (confidence 13) [0DC41F0F] (AR v2)
Copy OK

Track 7

Filename C:\FLAC\07 Fanfare For The Common Man.wav

Pre-gap length 0:00:02.64

Peak level 86.8 %
Extraction speed 7.0 X
Track quality 100.0 %
Test CRC 0CEF9D4F
Copy CRC 0CEF9D4F
Accurately ripped (confidence 12) [3DD80BD2] (AR v2)
Copy OK

Track 8

Filename C:\FLAC\08 C'est La Vie.wav

Pre-gap length 0:00:02.62

Peak level 90.1 %
Extraction speed 7.3 X
Track quality 100.0 %
Test CRC C845C4E5
Copy CRC C845C4E5
Accurately ripped (confidence 13) [C902A3A7] (AR v2)
Copy OK

Track 9

Filename C:\FLAC\09 Pirates.wav

Pre-gap length 0:00:02.64

Peak level 97.4 %
Extraction speed 8.1 X
Track quality 100.0 %
Test CRC 0B4222C4
Copy CRC 0B4222C4
Accurately ripped (confidence 13) [F90BF79F] (AR v2)
Copy OK

Track 10

Filename C:\FLAC\10 Brain Salad Surgery.wav

Pre-gap length 0:00:02.62

Peak level 97.4 %
Extraction speed 8.2 X
Track quality 100.0 %
Test CRC 478CB691
Copy CRC 478CB691
Accurately ripped (confidence 13) [45F28048] (AR v2)
Copy OK

Track 11

Filename C:\FLAC\11 Honky Tonk Train Blues.wav

Pre-gap length 0:00:02.62

Peak level 97.4 %
Extraction speed 8.3 X
Track quality 99.9 %
Test CRC 67B72755
Copy CRC 67B72755
Accurately ripped (confidence 13) [0D0B36E1] (AR v2)
Copy OK

Track 12

Filename C:\FLAC\12 Love Beach.wav

Pre-gap length 0:00:02.64

Peak level 97.4 %
Extraction speed 8.4 X
Track quality 100.0 %
Test CRC 53FFF330
Copy CRC 53FFF330
Accurately ripped (confidence 13) [BB1C0BBD] (AR v2)
Copy OK

Track 13

Filename C:\FLAC\13 Black Moon.wav

Pre-gap length 0:00:02.64

Peak level 97.4 %
Extraction speed 9.0 X
Track quality 100.0 %
Test CRC 7F7F3910
Copy CRC 7F7F3910
Accurately ripped (confidence 13) [DE7E9EFC] (AR v2)
Copy OK

Track 14

Filename C:\FLAC\14 Affairs Of The Heart.wav

Pre-gap length 0:00:02.62

Peak level 65.7 %
Extraction speed 9.1 X
Track quality 100.0 %
Test CRC 084B73D6
Copy CRC 084B73D6
Accurately ripped (confidence 13) [7FB15E9C] (AR v2)
Copy OK


All tracks accurately ripped

No errors occurred

End of status report

–– CUETools DB Plugin V2.1.3

[CTDB TOCID: SWaV.14ykXfYhP805xtA1hY5woo-] found, Submit result: SWaV.14ykXfYhP805xtA1hY5woo- has been confirmed
[5988155a] (28/30) Accurately ripped
[7d80c112] (01/30) BadRequest
[1d7c3c56] (01/30) Differs in 1589 samples @27:32:41,73:43:28,73:49:34,73:52:47,74:16:33,74:23:23
You can use CUETools to repair this rip.


==== Log checksum A37540602A4A179FC0C94772B6C9111E342F5E37DC777061FD19522E187E0ABE ====

––––––––––––––––––––––––––––––

Exact Audio Copy V1.0 beta 3 from 29. August 2011

EAC extraction logfile from 5. August 2014, 22:44

Emerson Lake & Palmer / Fanfare For The Common Man - The Anthology CD02

Used drive : HL-DT-STDVDRAM GSA-T50L Adapter: 1 ID: 0

Read mode : Secure
Utilize accurate stream : Yes
Defeat audio cache : No
Make use of C2 pointers : No

Read offset correction : 667
Overread into Lead-In and Lead-Out : No
Fill up missing offset samples with silence : Yes
Delete leading and trailing silent blocks : No
Null samples used in CRC calculations : Yes
Used interface : Native Win32 interface for Win NT & 2000
Gap handling : Appended to previous track

Used output format : User Defined Encoder
Selected bitrate : 1024 kBit/s
Quality : High
Add ID3 tag : No
Command line compressor : C:\Program Files\Exact Audio Copy\Flac\flac.exe
Additional command line options : -8 -V -T "ARTIST=%artist%" -T "TITLE=%title%" -T "ALBUM=%albumtitle%" -T "DATE=%year%" -T "TRACKNUMBER=%tracknr%" -T "GENRE=%genre%" -T "PERFORMER=%albuminterpret%" -T "COMPOSER=%composer%" %haslyrics%–tag-from-file=LYRICS="%lyricsfile%"%haslyrics% -T "ALBUMARTIST=%albumartist%" -T "DISCNUMBER=%cdnumber%" -T "TOTALDISCS=%totalcds%" -T "TOTALTRACKS=%numtracks%" -T "COMMENT=%comment%" %source% -o %dest%


TOC of the extracted CD

Track | Start | Length | Start sector | End sector
––––––––––––––––––––––––––––-
1 | 0:00.00 | 4:16.15 | 0 | 19214
2 | 4:16.15 | 3:46.00 | 19215 | 36164
3 | 8:02.15 | 8:53.45 | 36165 | 76184
4 | 16:55.60 | 2:46.40 | 76185 | 88674
5 | 19:42.25 | 2:54.32 | 88675 | 101756
6 | 22:36.57 | 4:49.13 | 101757 | 123444
7 | 27:25.70 | 9:43.52 | 123445 | 167221
8 | 37:09.47 | 4:19.18 | 167222 | 186664
9 | 41:28.65 | 13:20.42 | 186665 | 246706
10 | 54:49.32 | 3:08.35 | 246707 | 260841
11 | 57:57.67 | 3:11.43 | 260842 | 275209
12 | 61:09.35 | 2:45.20 | 275210 | 287604
13 | 63:54.55 | 6:57.37 | 287605 | 318916
14 | 70:52.17 | 3:43.23 | 318917 | 335664


Track 1

Filename C:\FLAC\01 From The Beginning.wav

Pre-gap length 0:00:02.00

Peak level 95.6 %
Extraction speed 4.3 X
Track quality 100.0 %
Test CRC FFDFEF61
Copy CRC FFDFEF61
Accurately ripped (confidence 13) [AE7E24DB] (AR v2)
Copy OK

Track 2

Filename C:\FLAC\02 Hoedown.wav

Pre-gap length 0:00:02.64

Peak level 97.4 %
Extraction speed 4.7 X
Track quality 100.0 %
Test CRC 497CD7A0
Copy CRC 497CD7A0
Accurately ripped (confidence 13) [CB6950D6] (AR v2)
Copy OK

Track 3

Filename C:\FLAC\03 Trlogy.wav

Pre-gap length 0:00:02.64

Peak level 77.4 %
Extraction speed 5.4 X
Track quality 100.0 %
Test CRC 77951069
Copy CRC 77951069
Accurately ripped (confidence 13) [63426B2E] (AR v2)
Copy OK

Track 4

Filename C:\FLAC\04 Jerusalem.wav

Pre-gap length 0:00:02.64

Peak level 97.7 %
Extraction speed 5.7 X
Track quality 100.0 %
Test CRC 81B1898B
Copy CRC 81B1898B
Accurately ripped (confidence 13) [7E440D1E] (AR v2)
Copy OK

Track 5

Filename C:\FLAC\05 Still.. You Turn Me On.wav

Pre-gap length 0:00:02.64

Peak level 97.7 %
Extraction speed 6.2 X
Track quality 100.0 %
Test CRC D9C72991
Copy CRC D9C72991
Accurately ripped (confidence 13) [81CCED8B] (AR v2)
Copy OK

Track 6

Filename C:\FLAC\06 Karn Evil 9 - 1st Impression, Part 2.wav

Pre-gap length 0:00:02.62

Peak level 97.4 %
Extraction speed 6.3 X
Track quality 99.9 %
Test CRC D0C36C1B
Copy CRC D0C36C1B
Accurately ripped (confidence 13) [0DC41F0F] (AR v2)
Copy OK

Track 7

Filename C:\FLAC\07 Fanfare For The Common Man.wav

Pre-gap length 0:00:02.64

Peak level 86.8 %
Extraction speed 7.0 X
Track quality 100.0 %
Test CRC 0CEF9D4F
Copy CRC 0CEF9D4F
Accurately ripped (confidence 12) [3DD80BD2] (AR v2)
Copy OK

Track 8

Filename C:\FLAC\08 C'est La Vie.wav

Pre-gap length 0:00:02.62

Peak level 90.1 %
Extraction speed 7.3 X
Track quality 100.0 %
Test CRC C845C4E5
Copy CRC C845C4E5
Accurately ripped (confidence 13) [C902A3A7] (AR v2)
Copy OK

Track 9

Filename C:\FLAC\09 Pirates.wav

Pre-gap length 0:00:02.64

Peak level 97.4 %
Extraction speed 8.1 X
Track quality 100.0 %
Test CRC 0B4222C4
Copy CRC 0B4222C4
Accurately ripped (confidence 13) [F90BF79F] (AR v2)
Copy OK

Track 10

Filename C:\FLAC\10 Brain Salad Surgery.wav

Pre-gap length 0:00:02.62

Peak level 97.4 %
Extraction speed 8.2 X
Track quality 100.0 %
Test CRC 478CB691
Copy CRC 478CB691
Accurately ripped (confidence 13) [45F28048] (AR v2)
Copy OK

Track 11

Filename C:\FLAC\11 Honky Tonk Train Blues.wav

Pre-gap length 0:00:02.62

Peak level 97.4 %
Extraction speed 8.3 X
Track quality 99.9 %
Test CRC 67B72755
Copy CRC 67B72755
Accurately ripped (confidence 13) [0D0B36E1] (AR v2)
Copy OK

Track 12

Filename C:\FLAC\12 Love Beach.wav

Pre-gap length 0:00:02.64

Peak level 97.4 %
Extraction speed 8.4 X
Track quality 100.0 %
Test CRC 53FFF330
Copy CRC 53FFF330
Accurately ripped (confidence 13) [BB1C0BBD] (AR v2)
Copy OK

Track 13

Filename C:\FLAC\13 Black Moon.wav

Pre-gap length 0:00:02.64

Peak level 97.4 %
Extraction speed 9.0 X
Track quality 100.0 %
Test CRC 7F7F3910
Copy CRC 7F7F3910
Accurately ripped (confidence 13) [DE7E9EFC] (AR v2)
Copy OK

Track 14

Filename C:\FLAC\14 Affairs Of The Heart.wav

Pre-gap length 0:00:02.62

Peak level 65.7 %
Extraction speed 9.1 X
Track quality 100.0 %
Test CRC 084B73D6
Copy CRC 084B73D6
Accurately ripped (confidence 13) [7FB15E9C] (AR v2)
Copy OK


All tracks accurately ripped

No errors occurred

End of status report

–– CUETools DB Plugin V2.1.3

[CTDB TOCID: SWaV.14ykXfYhP805xtA1hY5woo-] found, Submit result: SWaV.14ykXfYhP805xtA1hY5woo- has been confirmed
[5988155a] (28/30) Accurately ripped
[7d80c112] (01/30) BadRequest
[1d7c3c56] (01/30) Differs in 1589 samples @27:32:41,73:43:28,73:49:34,73:52:47,74:16:33,74:23:23
You can use CUETools to repair this rip.


==== Log checksum A37540602A4A179FC0C94772B6C9111E342F5E37DC777061FD19522E187E0ABE ====

foobar2000 1.2 / Dynamic Range Meter 1.1.1
log date: 2014-08-10 16:29:51

––––––––––––––––––––––––––––––––––––––––
Analyzed: Emerson Lake & Palmer / Fanfare For The Common Man - The Anthology CD02
––––––––––––––––––––––––––––––––––––––––

DR Peak RMS Duration Track
––––––––––––––––––––––––––––––––––––––––
DR15 -0.39 dB -19.53 dB 4:16 01-From The Beginning
DR10 -0.22 dB -12.09 dB 3:46 02-Hoedown
DR8 -2.22 dB -12.35 dB 8:54 03-Trlogy
DR7 -0.20 dB -10.05 dB 2:47 04-Jerusalem
DR11 -0.20 dB -16.01 dB 2:54 05-Still.. You Turn Me On
DR8 -0.22 dB -10.99 dB 4:49 06-Karn Evil 9 - 1st Impression, Part 2
DR10 -1.22 dB -14.29 dB 9:44 07-Fanfare For The Common Man
DR11 -0.90 dB -17.37 dB 4:19 08-C'est La Vie
DR12 -0.22 dB -15.16 dB 13:21 09-Pirates
DR12 -0.22 dB -16.45 dB 3:08 10-Brain Salad Surgery
DR11 -0.22 dB -14.55 dB 3:12 11-Honky Tonk Train Blues
DR10 -0.22 dB -12.38 dB 2:45 12-Love Beach
DR11 -0.22 dB -14.00 dB 6:57 13-Black Moon
DR13 -3.64 dB -20.56 dB 3:43 14-Affairs Of The Heart
––––––––––––––––––––––––––––––––––––––––

Number of tracks: 14
Official DR value: DR11

Samplerate: 44100 Hz
Channels: 2
Bits per sample: 16
Bitrate: 860 kbps
Codec: FLAC
================================================================================

Emerson, Lake & Palmer - Fanfare For The Common Man: The Anthology (2001) [Re-Up]

Emerson, Lake & Palmer - Fanfare For The Common Man: The Anthology (2001) [Re-Up]

All thanks to original releaser - only1joe

More interesting music in My Blog