Subcategories
Tags
Language
Tags

Dominique Visse, Ensemble Clément Janequin - Clément Janequin: Messes (1995)

Posted By: ArlegZ
Dominique Visse, Ensemble Clément Janequin - Clément Janequin: Messes (1995)

Dominique Visse, Ensemble Clément Janequin - Clément Janequin: Messes (1995)
EAC | FLAC | Image (Cue & Log) ~ 251 Mb | Total time: 50:10 | Scans included
Classical | Label: Harmonia Mundi | # HMC 901536 | Recorded: 1994

The Renaissance French composer Clément Janequin is rightfully regarded today as a master of the chanson, of which 286 have survived. Had only the program chansons "La Bataille de Marignan" (which imitates the sounds of battle) and "Le Chant des oiseaux" (which imitates the sound of birds) survived today, he would still lay claim to greatness in the genre.
Unfortunately, Janequin has bequeathed to posterity only two masses, each a "parody" mass derived from a chanson: Messe 'La Bataille' and Messe 'L'Aveugl Dieu'. The most stunning portion of the former mass is the transformation of the martial chanson into the three gentle versions of the Agnus Dei.
The Ensemble Clément Janequin, under the direction of Dominique Visse, performs both of these masses and Janequin's only surviving motet, "Congregati Sunt." While the vocal performances and occasional instrumental accompaniment (provided by Les Sacqueboutiers de Toulouse) are faithful to the period, they are, nonetheless, warm and unfussy.

Performer:
Ensemble Clément Janequin
Dominique Visse, direction

Track List:
Messe "La Bataille"
01. Kyrie
02. Gloria
03. Credo
04. Sanctus
05. Agnus Dei
06. Congregati Sunt, motet à quatre voix
Messe "L’Aveuglé Dieu"
07. Kyrie
08. Gloria
09. Credo
10. Sanctus
11. Benedictus
12. Agnus Dei


Exact Audio Copy V1.5 from 20. February 2020

EAC extraction logfile from 24. May 2020, 22:06

Dominique Visse / Messes

Used drive : hp DVDRAM GT30L Adapter: 1 ID: 1

Read mode : Secure
Utilize accurate stream : Yes
Defeat audio cache : Yes
Make use of C2 pointers : No

Read offset correction : 103
Overread into Lead-In and Lead-Out : No
Fill up missing offset samples with silence : Yes
Delete leading and trailing silent blocks : No
Null samples used in CRC calculations : Yes
Used interface : Native Win32 interface for Win NT & 2000

Used output format : User Defined Encoder
Selected bitrate : 768 kBit/s
Quality : High
Add ID3 tag : No
Command line compressor : C:\Program Files (x86)\Exact Audio Copy\Flac\flac.exe
Additional command line options : -6 -V -T "ARTIST=%artist%" -T "TITLE=%title%" -T "ALBUM=%albumtitle%" -T "DATE=%year%" -T "TRACKNUMBER=%tracknr%" -T "GENRE=%genre%" -T "COMMENT=%comment%" -T "BAND=%albuminterpret%" -T "ALBUMARTIST=%albuminterpret%" -T "DISCNUMBER=%cdnumber%" -T "TOTALDISCS=%totalcds%" -T "TOTALTRACKS=%numtracks%" %hascover%–picture="%coverfile%"%hascover% %source% -o %dest% -T "RIPPER=Roy@Susato"


TOC of the extracted CD

Track | Start | Length | Start sector | End sector
––––––––––––––––––––––––––––-
1 | 0:00.32 | 3:00.03 | 32 | 13534
2 | 3:00.35 | 4:14.47 | 13535 | 32631
3 | 7:15.07 | 5:49.73 | 32632 | 58879
4 | 13:05.05 | 4:02.62 | 58880 | 77091
5 | 17:07.67 | 5:17.03 | 77092 | 100869
6 | 22:24.70 | 5:09.00 | 100870 | 124044
7 | 27:33.70 | 2:46.55 | 124045 | 136549
8 | 30:20.50 | 4:25.52 | 136550 | 156476
9 | 34:46.27 | 6:55.68 | 156477 | 187669
10 | 41:42.20 | 2:34.60 | 187670 | 199279
11 | 44:17.05 | 1:47.20 | 199280 | 207324
12 | 46:04.25 | 4:14.07 | 207325 | 226381


Range status and errors

Selected range

Filename C:\Users\Roy\Music\JANEQUIN - Messes ( ) Visse; Harmonia Mundi]\CD (FLAC + CUE)\Clément Janequin - Messes.wav

Peak level 98.5 %
Extraction speed 4.1 X
Range quality 100.0 %
Test CRC 1F807A3C
Copy CRC 1F807A3C
Copy OK

No errors occurred


AccurateRip summary

Track 1 accurately ripped (confidence 4) [D2683931] (AR v2)
Track 2 accurately ripped (confidence 4) [3E950449] (AR v2)
Track 3 accurately ripped (confidence 4) [7DC0A0A3] (AR v2)
Track 4 accurately ripped (confidence 4) [23BF3F42] (AR v2)
Track 5 accurately ripped (confidence 4) [9DF64073] (AR v2)
Track 6 accurately ripped (confidence 4) [9B3133AD] (AR v2)
Track 7 accurately ripped (confidence 4) [7696125A] (AR v2)
Track 8 accurately ripped (confidence 4) [40514E74] (AR v2)
Track 9 accurately ripped (confidence 4) [FEE5FC79] (AR v2)
Track 10 accurately ripped (confidence 4) [FA2364A3] (AR v2)
Track 11 accurately ripped (confidence 4) [851BC5C9] (AR v2)
Track 12 accurately ripped (confidence 4) [8DD4AFA5] (AR v2)

All tracks accurately ripped

End of status report

–– CUETools DB Plugin V2.1.6

[CTDB TOCID: nqi2HPx7ekC.QkLkgyur8md9QDo-] found
Submit result: nqi2HPx7ekC.QkLkgyur8md9QDo- has been confirmed
Track | CTDB Status
1 | (12/12) Accurately ripped
2 | (12/12) Accurately ripped
3 | (12/12) Accurately ripped
4 | (12/12) Accurately ripped
5 | (12/12) Accurately ripped
6 | (12/12) Accurately ripped
7 | (12/12) Accurately ripped
8 | (12/12) Accurately ripped
9 | (12/12) Accurately ripped
10 | (12/12) Accurately ripped
11 | (12/12) Accurately ripped
12 | (12/12) Accurately ripped


==== Log checksum 99AD3ED2DC1655255DF5634728A243B9ACB015DB5D3B76CC273D373A6D250EA8 ====

Dominique Visse, Ensemble Clément Janequin - Clément Janequin: Messes (1995)

Thanks to the original releaser