Subcategories
Tags
Language
Tags

Dolores O'Riordan (The Cranberries) - 'Are You Listening?' (2007) + 'No Baggage' (2009) [Re-Up]

Posted By: Designol
Dolores O'Riordan (The Cranberries) - 'Are You Listening?' (2007) + 'No Baggage' (2009) [Re-Up]

Dolores O'Riordan (The Cranberries) - 'Are You Listening?' (2007) + 'No Baggage' (2009)
EAC | FLAC | Image (Cue&Log) ~ 498 + 334 Mb | Mp3 (CBR320) ~ 205 + 123 Mb | Scans Included
Adult Alternative Pop/Rock, Folk Rock, Celtic | Label: BMG / Cooking Vinyl | # BVCP-21530 / COOK CD

Dolores Mary Eileen O'Riordan is an Irish musician, singer and songwriter. She led the rock band The Cranberries to worldwide success for thirteen years before the band took a break starting in 2003, reuniting in 2009. Her first solo album Are You Listening? was released in May 2007. Her second solo album No Baggage was released in August 2009.

As lead vocalist of the Cranberries, Dolores O'Riordan was one of the most visible females in early-'90s alternative rock. Born the youngest of seven children on September 6, 1971, the Limerick native grew up finding solace in music, singing from an early age as well as playing classical piano and harmonium in church. In 1990, she auditioned for a Limerick-based band named Cranberry Saw Us and received the position of lead singer, having impressed her future bandmates with her lilting vocals. The group soon changed its name to the Cranberries and began releasing demo material, which sparked the interest of several major labels. Due to management problems, however, the Cranberries' debut effort Everybody Else Is Doing It, So Why Can't We didn't come out until 1993. The following year saw the release of No Need to Argue, an album whose lead-off single, "Zombie," brought the group to fame in several countries and threw O'Riordan into the public eye. To the Faithful Departed was issued in 1996, and three years later Bury the Hatchet hit shelves.

As the '90s progressed, the Cranberries' commercial success steadily waned. Nonetheless, they released Wake Up and Smell the Coffee in 2001 and the greatest-hits compilation Stars: The Best of 1992-2002 in 2002. Shortly thereafter, however, the bandmembers announced that they would be splitting up, giving O'Riordan time not only to focus on her family and health (she had battled anorexia and anxiety throughout her time in the spotlight) but also on her solo career. She contributed a song, "Pure Love," to Italian superstar Zucchero's album of duets, Zucchero & Co., and in May 2007 her solo full-length debut, Are You Listening, was released worldwide. Her sophomore set, No Baggage, followed two years later, its release coinciding with O'Riordan's acting debut in the David Grieco film Secrets of Love. In 2010, the Cranberries ended their hiatus with a reunion tour and a new album, Roses, which was released in 2012. In the following years, O'Riordan remained relatively silent. It wasn't until a chance meeting with former Smiths bassist Andy Rourke in 2015 that she explored new territory as a member of super trio, D.A.R.K. Along with Rourke and New York producer/songwriter Ole Koretsky, she arranged and produced D.A.R.K.'s New Wave-inspired debut, Science Agrees (Cooking Vinyl), which was released in 2016.

Biography by Marisa Brown, Allmusic.com

Dolores O'Riordan (The Cranberries) - 'Are You Listening?' (2007) + 'No Baggage' (2009) [Re-Up]





Dolores O'Riordan (The Cranberries) - 'Are You Listening?' (2007) + 'No Baggage' (2009) [Re-Up]

Dolores O'Riordan - Are You Listening? (2007) Japanese Edition
EAC | FLAC | Image (Cue&Log) ~ 498 Mb | Mp3 (CBR320) ~ 205 Mb | Scans included
Label: BMG | # BVCP-21530 | Time: 01:04:14

It's been a long period of quiet for Dolores O'Riordan, the lead singer of the Cranberries. Her band quietly disbanded after the 2001 release of Wake Up and Smell the Coffee and although she didn't disappear, O'Riordan surely wasn't overly active, popping up on music by Angelo Badalamenti and Zucchero but primarily devoting herself to family affairs before she set out to record her solo debut with producer Youth in 2006. Released the following year, Are You Listening sidesteps the turgid proggy inclinations of latter-day Cranberries albums while also avoiding the awkward attempts at hard rock that plagued some of the band's mid-period albums. So, it returns O'Riordan to her strengths: melodic, atmospheric, mildly brooding pop. But Are You Listening isn't exactly a dead ringer for Everybody Else Is Doing It, So Why Can't We? Youth gives this album drama, grandeur, and muscle, so it sounds positively cinematic where early Cranberries was quiet and insular. Of course, this sense of scale is only appropriate for the modern-day Dolores O'Riordan, who has long been a star but where that sense of confidence could turn indulgent on latter-day Cranberries albums, she's now relatively humble and direct, singing songs about family, faith, and nostalgia that sound relatable to fans who have grown up with her and are also facing similar issues. And that's why Are You Listening is a success as a solo debut: it doesn't resurrect O'Riordan's earliest work as much as reconnect with it, and she hasn't sounded this purposeful, or made a record this satisfying, since the days of "Linger."

Review by Stephen Thomas Erlewine, Allmusic.com

Tracklist:

01. Ordinary Day (4:06)
02. When We Were Young (3:25)
03. In The Garden (4:28)
04. Human Spirit (4:02)
05. Loser (2:58)
06. Stay With Me (4:03)
07. Apple Of My Eye (4:44)
08. Black Widow (4:57)
09. October (4:38)
10. Accept Things (4:11)
11. Angel Fire (5:02)
12. Ecstasy (5:13)

Japan Bonus Tracks:
13. Letting Go (5:44)
14. Forever (4:09)
15. Sisterly Love (2:36)


Exact Audio Copy V1.0 beta 3 from 29. August 2011

EAC extraction logfile from 12. October 2011, 5:48

Dolores O'Riordan / Are You Listening? (Japanese Import)

Used drive : HL-DT-STDVDRAM GT30N Adapter: 0 ID: 0

Read mode : Secure
Utilize accurate stream : Yes
Defeat audio cache : Yes
Make use of C2 pointers : No

Read offset correction : 103
Overread into Lead-In and Lead-Out : No
Fill up missing offset samples with silence : Yes
Delete leading and trailing silent blocks : No
Null samples used in CRC calculations : Yes
Used interface : Native Win32 interface for Win NT & 2000

Used output format : Internal WAV Routines
Sample format : 44.100 Hz; 16 Bit; Stereo


TOC of the extracted CD

Track | Start | Length | Start sector | End sector
––––––––––––––––––––––––––––-
1 | 0:00.00 | 4:05.55 | 0 | 18429
2 | 4:05.55 | 3:24.38 | 18430 | 33767
3 | 7:30.18 | 4:28.10 | 33768 | 53877
4 | 11:58.28 | 4:01.43 | 53878 | 71995
5 | 15:59.71 | 2:58.27 | 71996 | 85372
6 | 18:58.23 | 4:02.49 | 85373 | 103571
7 | 23:00.72 | 4:44.09 | 103572 | 124880
8 | 27:45.06 | 4:56.56 | 124881 | 147136
9 | 32:41.62 | 4:38.30 | 147137 | 168016
10 | 37:20.17 | 4:11.06 | 168017 | 186847
11 | 41:31.23 | 5:02.00 | 186848 | 209497
12 | 46:33.23 | 5:13.10 | 209498 | 232982
13 | 51:46.33 | 5:43.56 | 232983 | 258763
14 | 57:30.14 | 4:08.59 | 258764 | 277422
15 | 61:38.73 | 2:35.63 | 277423 | 289110


Range status and errors

Selected range

Filename C:\temp\Dolores O'Riordan - Are You Listening (Japanese Import)\Dolores O'Riordan - Are You Listening (Japanese Import).wav

Peak level 97.6 %
Extraction speed 4.7 X
Range quality 100.0 %
Test CRC E452C63D
Copy CRC E452C63D
Copy OK

No errors occurred


AccurateRip summary

Track 1 accurately ripped (confidence 3) [1542F68B] (AR v1)
Track 2 accurately ripped (confidence 3) [A1C1DACD] (AR v1)
Track 3 accurately ripped (confidence 3) [6961F9E5] (AR v1)
Track 4 accurately ripped (confidence 3) [42C27978] (AR v1)
Track 5 accurately ripped (confidence 3) [67FE99D4] (AR v1)
Track 6 accurately ripped (confidence 3) [10265B48] (AR v1)
Track 7 accurately ripped (confidence 3) [BF123976] (AR v1)
Track 8 accurately ripped (confidence 3) [0E808496] (AR v1)
Track 9 accurately ripped (confidence 3) [26AFDA34] (AR v1)
Track 10 accurately ripped (confidence 3) [ED74E76F] (AR v1)
Track 11 accurately ripped (confidence 3) [7307F3B9] (AR v1)
Track 12 accurately ripped (confidence 3) [C637D9E8] (AR v1)
Track 13 accurately ripped (confidence 4) [AF9F3E34] (AR v1)
Track 14 accurately ripped (confidence 4) [7F1A88F9] (AR v1)
Track 15 accurately ripped (confidence 4) [60F99D06] (AR v1)

All tracks accurately ripped

End of status report

==== Log checksum 10F022CE33A87F49877C6D741C42D4CFA1804FC8A9920A39060CFF15AC6F10D8 ====

[CUETools log; Date: 13.10.2017 18:10:19; Version: 2.1.4]
[CTDB TOCID: tUU21TpdNc9tOJIbu9a2cIVIyWU-] found.
Track | CTDB Status
1 | (6/6) Accurately ripped
2 | (6/6) Accurately ripped
3 | (6/6) Accurately ripped
4 | (6/6) Accurately ripped
5 | (6/6) Accurately ripped
6 | (6/6) Accurately ripped
7 | (6/6) Accurately ripped
8 | (6/6) Accurately ripped
9 | (6/6) Accurately ripped
10 | (6/6) Accurately ripped
11 | (6/6) Accurately ripped
12 | (6/6) Accurately ripped
13 | (6/6) Accurately ripped
14 | (6/6) Accurately ripped
15 | (6/6) Accurately ripped
[AccurateRip ID: 002282af-018c270a-c50f0e0f] found.
Track [ CRC | V2 ] Status
01 [1542f68b|ac5f13c7] (3+2/5) Accurately ripped
02 [a1c1dacd|491c6706] (3+2/5) Accurately ripped
03 [6961f9e5|3c1472b8] (3+2/5) Accurately ripped
04 [42c27978|7a923b4a] (3+2/5) Accurately ripped
05 [67fe99d4|254d54e2] (3+2/5) Accurately ripped
06 [10265b48|035e325a] (3+2/5) Accurately ripped
07 [bf123976|f73177b6] (3+2/5) Accurately ripped
08 [0e808496|dff86cbf] (3+2/5) Accurately ripped
09 [26afda34|2a07d024] (3+2/5) Accurately ripped
10 [ed74e76f|2f6913c0] (3+2/5) Accurately ripped
11 [7307f3b9|262ed4b7] (3+2/5) Accurately ripped
12 [c637d9e8|1039e0ed] (3+2/5) Accurately ripped
13 [af9f3e34|67edee4e] (4+2/6) Accurately ripped
14 [7f1a88f9|40489a33] (4+2/6) Accurately ripped
15 [60f99d06|da2004ef] (4+2/6) Accurately ripped

Track Peak [ CRC32 ] [W/O NULL] [ LOG ]
– 97,6 [E452C63D] [9D9EAED0] CRC32
01 97,6 [2FF3F613] [DD1599CF]
02 97,4 [768CE4A9] [643C0858]
03 92,6 [5800D28C] [BF8A724A]
04 91,9 [30C0D827] [09F9A317]
05 97,0 [BD3AE678] [08CC596F]
06 96,4 [4EB09E45] [D07EA6FE]
07 96,2 [183FF4F7] [A4A10C7F]
08 91,2 [77A82077] [17F954BC]
09 93,3 [21A4BF4C] [8FDE254D]
10 97,1 [FEC47D87] [6C5BDCA7]
11 93,1 [CC174A36] [46269C9E]
12 94,1 [1171BA88] [FC98409D]
13 95,4 [195E24FC] [F52E41AC]
14 95,6 [8C2E9123] [B3CDE094]
15 95,7 [E5A01338] [3067A61B]

foobar2000 1.2 / Dynamic Range Meter 1.1.1
log date: 2017-10-13 18:15:50

––––––––––––––––––––––––––––––––––––––––
Analyzed: Dolores O'Riordan / Are You Listening? (Japanese Import)
––––––––––––––––––––––––––––––––––––––––

DR Peak RMS Duration Track
––––––––––––––––––––––––––––––––––––––––
DR6 -0.21 dB -7.80 dB 4:06 01-Ordinary Day
DR6 -0.23 dB -8.06 dB 3:25 02-When We Were Young
DR6 -0.66 dB -8.64 dB 4:28 03-In The Garden
DR6 -0.73 dB -8.34 dB 4:02 04-Human Spirit
DR6 -0.26 dB -7.36 dB 2:58 05-Loser
DR6 -0.31 dB -8.96 dB 4:03 06-Stay With Me
DR7 -0.33 dB -8.88 dB 4:44 07-Apple Of My Eye
DR7 -0.80 dB -11.12 dB 4:57 08-Black Widow
DR6 -0.60 dB -8.06 dB 4:38 09-October
DR6 -0.25 dB -8.85 dB 4:11 10-Accept Things
DR6 -0.62 dB -8.25 dB 5:02 11-Angel Fire
DR6 -0.52 dB -8.19 dB 5:13 12-Ecstasy
DR8 -0.41 dB -10.23 dB 5:44 13-Letting Go
DR7 -0.39 dB -8.21 dB 4:09 14-Forever
DR10 -0.38 dB -12.20 dB 2:36 15-Sisterly Love
––––––––––––––––––––––––––––––––––––––––

Number of tracks: 15
Official DR value: DR7

Samplerate: 44100 Hz
Channels: 2
Bits per sample: 16
Bitrate: 958 kbps
Codec: FLAC
================================================================================




Dolores O'Riordan (The Cranberries) - 'Are You Listening?' (2007) + 'No Baggage' (2009) [Re-Up]

Dolores O'Riordan - No Baggage (2009)
EAC | FLAC | Image (Cue&Log) ~ 334 Mb | Mp3 (CBR320) ~ 123 Mb | Scans included
Label: Cooking Vinyl | # COOK CD 496 | Time: 00:45:20

If the title of Dolores O'Riordan's 2007 debut Are You Listening? asked a question appropriate for the launch of a solo career, the name of her 2009 sophomore effort is a statement of purpose: she's heading into this next phase of her career with no expectations, No Baggage. Of course, she cannot leave behind her distinctive voice, nor does she wish to, as she gives her two trademarks – the breathy whisper and lacerating caterwaul – almost equal space here. That doesn't necessarily mean that O'Riordan relies on the familiar throughout No Baggage. Yes, this is instantly recognizable as her music – not just in that voice, but its blend of folk-rock and sighing, spacy rock that splits the difference between U2 and David Gilmour-led Pink Floyd – but No Baggage is bigger, brighter than Are You Listening? and as the album starts to hit its stride halfway through, she weaves in increasingly varied instrumentations, sometimes delving into pure worldbeat influence but more often using all these sounds as coloring on crisp, cheerful adult pop. These clean, open arrangements tend to make the songs seem catchier than they actually are – the hooks don't grab, they repeat like softened incantations that never quite catch hold – but that does give No Baggage an nice, gentle shimmer that's appealing.

Review by Stephen Thomas Erlewine, Allmusic.com

Tracklist:

01. Switch Off The Moment (3:18)
02. Skeleton (3:25)
03. It's You (4:11)
04. The Journey (3:53)
05. Stupid (4:46)
06. Be Careful (4:20)
07. Apple Of My Eye (4:47)
08. Throw Your Arms Around Me (4:26)
09. Fly Through (3:54)
10. Lunatic (4:29)
11. Tranquilizer (3:51)


Exact Audio Copy V1.0 beta 3 from 29. August 2011

EAC extraction logfile from 12. October 2011, 5:00

Dolores O'Riordan / No Baggage

Used drive : HL-DT-STDVDRAM GT30N Adapter: 0 ID: 0

Read mode : Secure
Utilize accurate stream : Yes
Defeat audio cache : Yes
Make use of C2 pointers : No

Read offset correction : 103
Overread into Lead-In and Lead-Out : No
Fill up missing offset samples with silence : Yes
Delete leading and trailing silent blocks : No
Null samples used in CRC calculations : Yes
Used interface : Native Win32 interface for Win NT & 2000

Used output format : Internal WAV Routines
Sample format : 44.100 Hz; 16 Bit; Stereo


TOC of the extracted CD

Track | Start | Length | Start sector | End sector
––––––––––––––––––––––––––––-
1 | 0:00.00 | 3:18.28 | 0 | 14877
2 | 3:18.28 | 3:24.52 | 14878 | 30229
3 | 6:43.05 | 4:11.10 | 30230 | 49064
4 | 10:54.15 | 3:52.48 | 49065 | 66512
5 | 14:46.63 | 4:45.66 | 66513 | 87953
6 | 19:32.54 | 4:20.09 | 87954 | 107462
7 | 23:52.63 | 4:47.15 | 107463 | 129002
8 | 28:40.03 | 4:25.73 | 129003 | 148950
9 | 33:06.01 | 3:54.19 | 148951 | 166519
10 | 37:00.20 | 4:28.69 | 166520 | 186688
11 | 41:29.14 | 3:51.01 | 186689 | 204014


Range status and errors

Selected range

Filename C:\temp\Dolores O'Riordan - No Baggage\Dolores O'Riordan - No Baggage.wav

Peak level 99.9 %
Extraction speed 4.4 X
Range quality 100.0 %
Test CRC F5A88A09
Copy CRC F5A88A09
Copy OK

No errors occurred


AccurateRip summary

Track 1 accurately ripped (confidence 2) [60493BB5] (AR v2)
Track 2 accurately ripped (confidence 2) [3ECDFA5C] (AR v2)
Track 3 accurately ripped (confidence 17) [4ACA0D9E] (AR v1)
Track 4 accurately ripped (confidence 2) [D164CE5F] (AR v2)
Track 5 accurately ripped (confidence 2) [563929E5] (AR v2)
Track 6 accurately ripped (confidence 17) [12A8D31B] (AR v1)
Track 7 accurately ripped (confidence 17) [F9E62A5C] (AR v1)
Track 8 accurately ripped (confidence 17) [E7398499] (AR v1)
Track 9 accurately ripped (confidence 17) [6A47949E] (AR v1)
Track 10 accurately ripped (confidence 17) [19096C2E] (AR v1)
Track 11 accurately ripped (confidence 17) [F9DD534B] (AR v1)

All tracks accurately ripped

End of status report

==== Log checksum 1170EF1D3F643241FB040EB492AB99C26F6789E4AEF201894E0AE180041E1D69 ====

[CUETools log; Date: 13.10.2017 18:10:32; Version: 2.1.4]
[CTDB TOCID: G5TSh4GIJ1Dh7u0FWiC.62l8Bq4-] found.
Track | CTDB Status
1 | ( 99/101) Accurately ripped
2 | (100/101) Accurately ripped
3 | (100/101) Accurately ripped
4 | (100/101) Accurately ripped
5 | (100/101) Accurately ripped
6 | (100/101) Accurately ripped
7 | (100/101) Accurately ripped
8 | (100/101) Accurately ripped
9 | (100/101) Accurately ripped
10 | (100/101) Accurately ripped
11 | ( 99/101) Accurately ripped
[AccurateRip ID: 00122d71-009fbdab-8d0aa00b] found.
Track [ CRC | V2 ] Status
01 [1c7de002|60493bb5] (016+016/123) Accurately ripped
02 [2f3b2f45|3ecdfa5c] (016+016/125) Accurately ripped
03 [4aca0d9e|0c8f0270] (016+015/125) Accurately ripped
04 [7837c114|d164ce5f] (016+016/124) Accurately ripped
05 [ab0f4872|563929e5] (016+016/123) Accurately ripped
06 [12a8d31b|e9cd8b04] (016+015/124) Accurately ripped
07 [f9e62a5c|d68b41cb] (016+015/125) Accurately ripped
08 [e7398499|42a15124] (016+015/123) Accurately ripped
09 [6a47949e|fcf3d53f] (016+015/124) Accurately ripped
10 [19096c2e|1b29327b] (016+015/123) Accurately ripped
11 [f9dd534b|1e1ea607] (016+015/115) Accurately ripped
Offsetted by -42:
01 [38697ca1] (002/123) Accurately ripped
02 [93e80e9c] (002/125) Accurately ripped
03 [5c34cdee] (002/125) Accurately ripped
04 [0eb9c8ee] (002/124) Accurately ripped
05 [68f69968] (002/123) Accurately ripped
06 [4248db29] (002/124) Accurately ripped
07 [f3845676] (002/125) Accurately ripped
08 [33f1b1e3] (002/123) Accurately ripped
09 [602d6f48] (002/124) Accurately ripped
10 [747e40c0] (002/123) Accurately ripped
11 [471a91af] (002/115) Accurately ripped
Offsetted by 604:
01 [b6361cf1] (003/123) Accurately ripped
02 [3f153be2] (003/125) Accurately ripped
03 [37ef70be] (003/125) Accurately ripped
04 [d3022b98] (003/124) Accurately ripped
05 [f50177e6] (003/123) Accurately ripped
06 [e3e037d3] (003/124) Accurately ripped
07 [ab037f60] (003/125) Accurately ripped
08 [a6c5a73b] (003/123) Accurately ripped
09 [49cbc8a4] (003/124) Accurately ripped
10 [0e3025e2] (003/123) Accurately ripped
11 [10ce1b33] (003/115) Accurately ripped
Offsetted by 634:
01 [eaa5c42f] (036/123) Accurately ripped
02 [2be34a92] (038/125) Accurately ripped
03 [bdc7c2ce] (038/125) Accurately ripped
04 [8c13016a] (037/124) Accurately ripped
05 [4465e86f] (036/123) Accurately ripped
06 [f53f7592] (038/124) Accurately ripped
07 [af928472] (038/125) Accurately ripped
08 [cfe6dbda] (037/123) Accurately ripped
09 [b90d2769] (038/124) Accurately ripped
10 [3a938e0c] (037/123) Accurately ripped
11 [475937c7] (035/115) Accurately ripped
Offsetted by 646:
01 [32d26d7b] (002/123) Accurately ripped
02 [bdcf5072] (002/125) Accurately ripped
03 [2684b06e] (002/125) Accurately ripped
04 [3c8023be] (002/124) Accurately ripped
05 [a887d566] (002/123) Accurately ripped
06 [95bb27a3] (002/124) Accurately ripped
07 [b1655346] (002/125) Accurately ripped
08 [835786fc] (002/123) Accurately ripped
09 [1818e6df] (002/124) Accurately ripped
10 [b2bb5150] (002/123) Accurately ripped
11 [c390dccf] (002/115) Accurately ripped
Offsetted by -763:
01 [575aa3d2] (000/123) No match (V2 was not tested)
02 [5defd932] (000/125) No match (V2 was not tested)
03 [b1dd5df6] (000/125) No match (V2 was not tested)
04 [7bc74fb7] (000/124) No match (V2 was not tested)
05 [f36849f2] (000/123) No match (V2 was not tested)
06 [771f7133] (000/124) No match (V2 was not tested)
07 [309fa0df] (000/125) No match (V2 was not tested)
08 [d7192bc4] (000/123) No match (V2 was not tested)
09 [db971299] (000/124) No match (V2 was not tested)
10 [6bd3d735] (000/123) No match (V2 was not tested)
11 [f50b40b9] (000/115) No match (V2 was not tested)
Offsetted by 616:
01 [fe62c63d] (000/123) No match (V2 was not tested)
02 [d10141c2] (000/125) No match (V2 was not tested)
03 [a0ac5e5e] (000/125) No match (V2 was not tested)
04 [836f4dec] (000/124) No match (V2 was not tested)
05 [7c8c6489] (000/123) No match (V2 was not tested)
06 [8476ea38] (000/124) No match (V2 was not tested)
07 [acd64e34] (000/125) No match (V2 was not tested)
08 [4b486412] (000/123) No match (V2 was not tested)
09 [a9cc8835] (000/124) No match (V2 was not tested)
10 [8657e926] (000/123) No match (V2 was not tested)
11 [8d05c03b] (000/115) No match (V2 was not tested)

Track Peak [ CRC32 ] [W/O NULL] [ LOG ]
– 99,9 [F5A88A09] [7B4A186F] CRC32
01 99,9 [04EAA25F] [836D2A22]
02 99,9 [7C6FD260] [AAE231B2]
03 99,9 [769CA63A] [46A85C7C]
04 99,9 [55B319EB] [83B38F4F]
05 99,9 [DC64A6D2] [BBF05F00]
06 99,9 [9EDD8C0F] [657C1891]
07 99,9 [89480881] [CA6083CF]
08 99,9 [6AF2DA34] [CB8F3D6C]
09 99,9 [32F4A606] [79C17D97]
10 86,7 [5E30D820] [952C0C0D]
11 99,9 [A08B64D3] [5545DAB1]

foobar2000 1.2 / Dynamic Range Meter 1.1.1
log date: 2017-10-13 18:16:12

––––––––––––––––––––––––––––––––––––––––
Analyzed: Dolores O'Riordan / No Baggage
––––––––––––––––––––––––––––––––––––––––

DR Peak RMS Duration Track
––––––––––––––––––––––––––––––––––––––––
DR7 -0.01 dB -8.48 dB 3:18 01-Switch Off The Moment
DR7 -0.01 dB -7.95 dB 3:25 02-Skeleton
DR7 -0.01 dB -8.20 dB 4:11 03-It's You
DR7 -0.01 dB -7.52 dB 3:53 04-The Journey
DR8 -0.01 dB -12.05 dB 4:46 05-Stupid
DR7 -0.01 dB -8.94 dB 4:20 06-Be Careful
DR8 -0.01 dB -9.11 dB 4:47 07-Apple Of My Eye
DR6 -0.01 dB -7.92 dB 4:26 08-Throw Your Arms Around Me
DR8 -0.01 dB -9.32 dB 3:54 09-Fly Through
DR9 -1.23 dB -13.93 dB 4:29 10-Lunatic
DR7 -0.01 dB -9.74 dB 3:51 11-Tranquilizer
––––––––––––––––––––––––––––––––––––––––

Number of tracks: 11
Official DR value: DR7

Samplerate: 44100 Hz
Channels: 2
Bits per sample: 16
Bitrate: 972 kbps
Codec: FLAC
================================================================================