Subcategories

Diana Krall - Sessions At West 54th (1999)

Posted By: TestTickles
Diana Krall - Sessions At West 54th (1999)

Diana Krall - Sessions At West 54th (1999)
EAC Rip | FLAC with CUE and log | scans | 187 mb
MP3 CBR 320kbps | RAR | 68 mb
Genre: jazz, vocal jazz

This is the broadcasted set Canadian pianist and singer Diana Krall did when she appeared on Sesions At West 54th. This is taken from when she appeared on the show broadcasted on 28 July, 1999.

Diana Krall - Sessions At West 54th (1999)

1. John Hiatt Intro
2. I Love Being Here With You
3. I've Got You Under My Skin
4. Interview 1
5. Lost Mind
6. When I Look In Your Eyes
7. Interview 2
8. Peel Me A Grape

Diana Krall-vocals, piano
Peter Bernstein-lead guitar
Paul Gill-bass
Jeff Farnsworth-drums

Broadcast on 28 July, 1999 on "Sessions At West 54th"

Exact Audio Copy V1.1 from 23. June 2015

EAC extraction logfile from 12. April 2017, 10:56

Diana Krall / Sessions At West 54th

Used drive : TEAC DVD-ROM DV-28SW Adapter: 1 ID: 0

Read mode : Secure
Utilize accurate stream : Yes
Defeat audio cache : Yes
Make use of C2 pointers : No

Read offset correction : 6
Overread into Lead-In and Lead-Out : No
Fill up missing offset samples with silence : Yes
Delete leading and trailing silent blocks : No
Null samples used in CRC calculations : Yes
Used interface : Native Win32 interface for Win NT & 2000
Gap handling : Appended to previous track

Used output format : Internal WAV Routines
Sample format : 44.100 Hz; 16 Bit; Stereo


TOC of the extracted CD

Track | Start | Length | Start sector | End sector
––––––––––––––––––––––––––––-
1 | 0:00.00 | 0:44.48 | 0 | 3347
2 | 0:44.48 | 4:18.14 | 3348 | 22711
3 | 5:02.62 | 6:26.06 | 22712 | 51667
4 | 11:28.68 | 1:14.40 | 51668 | 57257
5 | 12:43.33 | 5:05.74 | 57258 | 80206
6 | 17:49.32 | 4:21.48 | 80207 | 99829
7 | 22:11.05 | 1:55.68 | 99830 | 108522
8 | 24:06.73 | 6:14.07 | 108523 | 136579


Track 1

Filename C:\My Documents\My FLAC\Diana Krall - Sessions At West 54th (1999) [FLAC]\01 - John Hiatt Intro.wav

Pre-gap length 0:00:02.00

Peak level 100.0 %
Extraction speed 1.5 X
Track quality 100.0 %
Test CRC E5680E94
Copy CRC E5680E94
Track not present in AccurateRip database
Copy OK

Track 2

Filename C:\My Documents\My FLAC\Diana Krall - Sessions At West 54th (1999) [FLAC]\02 - I Love Being Here With You.wav

Peak level 100.0 %
Extraction speed 2.6 X
Track quality 100.0 %
Test CRC 559B089F
Copy CRC 559B089F
Track not present in AccurateRip database
Copy OK

Track 3

Filename C:\My Documents\My FLAC\Diana Krall - Sessions At West 54th (1999) [FLAC]\03 - I've Got You Under My Skin.wav

Peak level 100.0 %
Extraction speed 2.8 X
Track quality 99.9 %
Test CRC FF1B8F01
Copy CRC FF1B8F01
Track not present in AccurateRip database
Copy OK

Track 4

Filename C:\My Documents\My FLAC\Diana Krall - Sessions At West 54th (1999) [FLAC]\04 - Interview 1.wav

Peak level 100.0 %
Extraction speed 2.4 X
Track quality 100.0 %
Test CRC 8403EE19
Copy CRC 8403EE19
Track not present in AccurateRip database
Copy OK

Track 5

Filename C:\My Documents\My FLAC\Diana Krall - Sessions At West 54th (1999) [FLAC]\05 - Lost Mind.wav

Peak level 100.0 %
Extraction speed 3.4 X
Track quality 100.0 %
Test CRC DA824907
Copy CRC DA824907
Track not present in AccurateRip database
Copy OK

Track 6

Filename C:\My Documents\My FLAC\Diana Krall - Sessions At West 54th (1999) [FLAC]\06 - When I Look In Your Eyes.wav

Peak level 100.0 %
Extraction speed 3.4 X
Track quality 100.0 %
Test CRC D69AE90E
Copy CRC D69AE90E
Track not present in AccurateRip database
Copy OK

Track 7

Filename C:\My Documents\My FLAC\Diana Krall - Sessions At West 54th (1999) [FLAC]\07 - Interview 2.wav

Peak level 100.0 %
Extraction speed 3.0 X
Track quality 100.0 %
Test CRC BD9FB4F8
Copy CRC BD9FB4F8
Track not present in AccurateRip database
Copy OK

Track 8

Filename C:\My Documents\My FLAC\Diana Krall - Sessions At West 54th (1999) [FLAC]\08 - Peel Me A Grape.wav

Peak level 100.0 %
Extraction speed 2.6 X
Track quality 100.0 %
Test CRC 4CF62F5E
Copy CRC 4CF62F5E
Track not present in AccurateRip database
Copy OK


None of the tracks are present in the AccurateRip database

No errors occurred

End of status report

–– CUETools DB Plugin V2.1.6

[CTDB TOCID: 0ZCZ30.DwyegWuYOHwrQu_hramY-] disk not present in database
Submit result: 0ZCZ30.DwyegWuYOHwrQu_hramY- has been uploaded


==== Log checksum D130ABBCEC7F28B18901ABAE3F6BDB2B513528C888F7F0D5D4889960CAE9293D ====


Diana Krall - Sessions At West 54th (1999)