Subcategories

Dionne Warwicke (Warwick) - Then Came You (1975) Japanese Reissue 2008

Posted By: Designol
Dionne Warwicke (Warwick) - Then Came You (1975) Japanese Reissue 2008

Dionne Warwicke (Warwick) - Then Came You (1975) Japanese Reissue 2008
EAC | FLAC | Image (Cue&Log) ~ 248 Mb | Mp3 (CBR320) ~ 90 Mb | Scans ~ 91 Mb
R&B, Vocal Pop, Soul | Label: Warner Bros. | # WPCR-75430 | Time: 00:38:17

After being a premier vocalist in the '60s, Warwick seemed to have hit a stylistic wall by the early '70s. By the time she signed with Warner Bros. in 1970, Warwick attempted many styles and producers. Then Came You, released in 1975, has her teaming with both Jerry Ragovoy and, for one track, Thom Bell. Jerry Ragovoy was a successful producer who had Garnet Mimms and Howard Tate among his credits. For this effort, Ragovoy assembled a strong New York session band, including John Tropea, Leon Pendarvis, and Bob Babbitt. The first track, "Take It From Me," has Warwick getting a more R&B styled production rather than MOR. That was perfect since her voice had matured, attaining an effortless warmth and ease. Here she wasn't so much an interpreter of "great material," her voice and charm were the primary draw. Ragovoy's track "Move Me No Mountain" has a Barry White-styled backing, and Warwick got a chance to be more sensual. "How Can I Tell Him," a skilled, song about exiting a relationship, written by Ragovoy and Jacob Brackman, incorporates a slick arrangement that perfectly matches the feeling of person exiting a relationship. Warwick perfectly sung the lyrics with a sense of cautiousness, but also a little bit of happiness to be leaving. The title track is the duet with the Spinners. The song, produced by Thom Bell, was a number one pop single and her biggest hit in close to four years. Then Came You is mostly an innovative effort of New York R&B/pop that should make anyone's short list of albums that truly capture the style.

Review by Jason Elias, Allmusic.com

Dionne Warwicke (Warwick) - Then Came You (1975) Japanese Reissue 2008



Tracklist:

01. Take It From Me (3:46)
02. We'll Burn Our Bridges Behind Us (3:33)
03. Sure Thing (3:12)
04. Then Came You (3:59)
05. How Can I Tell Him (5:23)
06. Move Me No Mountain (5:04)
07. I Can't Wait To See My Baby's Face (3:28)
08. It's Magic (3:19)
09. Who Knows (3:18)
10. Getting In My Way (3:15)


Exact Audio Copy V1.0 beta 3 from 29. August 2011

EAC extraction logfile from 27. May 2013, 0:08

Dionne Warwicke / Then Came You

Used drive : PIONEER DVD-RW DVR-112D Adapter: 2 ID: 1

Read mode : Secure
Utilize accurate stream : Yes
Defeat audio cache : Yes
Make use of C2 pointers : No

Read offset correction : 48
Overread into Lead-In and Lead-Out : No
Fill up missing offset samples with silence : Yes
Delete leading and trailing silent blocks : No
Null samples used in CRC calculations : Yes
Used interface : Installed external ASPI interface

Used output format : User Defined Encoder
Selected bitrate : 1024 kBit/s
Quality : High
Add ID3 tag : No
Command line compressor : C:\Program Files (x86)\Exact Audio Copy\Flac\flac.exe
Additional command line options : -8 -V -T "Date=%year%" -T "Genre=%genre%" -T "COMMENT=ripped by bvstudio®" %source%


TOC of the extracted CD

Track | Start | Length | Start sector | End sector
––––––––––––––––––––––––––––-
1 | 0:00.00 | 3:45.53 | 0 | 16927
2 | 3:45.53 | 3:32.56 | 16928 | 32883
3 | 7:18.34 | 3:12.33 | 32884 | 47316
4 | 10:30.67 | 3:59.22 | 47317 | 65263
5 | 14:30.14 | 5:22.70 | 65264 | 89483
6 | 19:53.09 | 5:03.47 | 89484 | 112255
7 | 24:56.56 | 3:27.60 | 112256 | 127840
8 | 28:24.41 | 3:19.03 | 127841 | 142768
9 | 31:43.44 | 3:18.11 | 142769 | 157629
10 | 35:01.55 | 3:15.15 | 157630 | 172269


Range status and errors

Selected range

Filename F:\Dionne Warwick\1975 - Then Came You (2008 - Japan - WPCR-75430)\Dionne Warwicke - Then Came You.wav

Peak level 100.0 %
Extraction speed 6.5 X
Range quality 100.0 %
Test CRC 9DE84B58
Copy CRC 9DE84B58
Copy OK

No errors occurred


AccurateRip summary

Track 1 not present in database
Track 2 not present in database
Track 3 not present in database
Track 4 not present in database
Track 5 not present in database
Track 6 not present in database
Track 7 not present in database
Track 8 not present in database
Track 9 not present in database
Track 10 not present in database

None of the tracks are present in the AccurateRip database

End of status report

–– CUETools DB Plugin V2.1.5

[CTDB TOCID: IZYuGE7Swo.28Jv4py1FtjQvQ2I-] disk not present in database
Submit result: IZYuGE7Swo.28Jv4py1FtjQvQ2I- has been uploaded


==== Log checksum D14DA5ABB3C75146E9F8554333F60C07F75AFB2C4EB3195B498A02F763D8C6AD ====

[CUETools log; Date: 24.10.2018 23:38:38; Version: 2.1.4]
[CTDB TOCID: IZYuGE7Swo.28Jv4py1FtjQvQ2I-] found.
Track | CTDB Status
1 | (4/4) Accurately ripped
2 | (4/4) Accurately ripped
3 | (4/4) Accurately ripped
4 | (4/4) Accurately ripped
5 | (4/4) Accurately ripped
6 | (4/4) Accurately ripped
7 | (4/4) Accurately ripped
8 | (4/4) Accurately ripped
9 | (4/4) Accurately ripped
10 | (4/4) Accurately ripped
[AccurateRip ID: 000eb823-00764050-7a08f80a] found.
Track [ CRC | V2 ] Status
01 [abd8a4b7|6e24e029] (0+1/1) Accurately ripped
02 [56fbc6ac|d1af34f3] (0+1/1) Accurately ripped
03 [3ad92067|b97016a4] (0+1/1) Accurately ripped
04 [fd32d4eb|fc859b7a] (0+1/1) Accurately ripped
05 [a2305369|975c9ce7] (0+1/1) Accurately ripped
06 [91a0af38|e6878650] (0+1/1) Accurately ripped
07 [b44899a3|5465f820] (0+1/1) Accurately ripped
08 [41987088|46600e87] (0+1/1) Accurately ripped
09 [ca19db26|176eb74c] (0+1/1) Accurately ripped
10 [ae1873bf|711486e0] (0+1/1) Accurately ripped

Track Peak [ CRC32 ] [W/O NULL] [ LOG ]
– 100,0 [9DE84B58] [664F57D8] CRC32
01 100,0 [EC436331] [5D8AAE18]
02 100,0 [32AD5045] [FF8A8F02]
03 100,0 [3A269937] [DA4A7141]
04 100,0 [98EBC146] [C3A6CE24]
05 100,0 [AD7DFC07] [BD4FC2C7]
06 100,0 [E19D5998] [356D1FD0]
07 100,0 [5EE00922] [28F432BC]
08 100,0 [EB0EBFF8] [E51D16CC]
09 100,0 [9352E4A2] [2B93CA58]
10 100,0 [A06B4131] [ABC4FA82]

foobar2000 1.2 / Dynamic Range Meter 1.1.1
log date: 2018-10-24 23:41:34

––––––––––––––––––––––––––––––––––––––––
Analyzed: Dionne Warwicke / Then Came You
––––––––––––––––––––––––––––––––––––––––

DR Peak RMS Duration Track
––––––––––––––––––––––––––––––––––––––––
DR10 0.00 dB -11.96 dB 3:46 01-Take It From Me
DR10 0.00 dB -12.34 dB 3:33 02-We'll Burn Our Bridges Behind Us
DR9 0.00 dB -12.61 dB 3:12 03-Sure Thing
DR10 0.00 dB -11.67 dB 3:59 04-Then Came You
DR11 0.00 dB -13.32 dB 5:23 05-How Can I Tell Him
DR9 0.00 dB -10.77 dB 5:04 06-Move Me No Mountain
DR9 0.00 dB -11.91 dB 3:28 07-I Can't Wait To See My Baby's Face
DR10 0.00 dB -12.76 dB 3:19 08-It's Magic
DR9 0.00 dB -11.69 dB 3:18 09-Who Knows
DR9 0.00 dB -12.51 dB 3:15 10-Getting In My Way
––––––––––––––––––––––––––––––––––––––––

Number of tracks: 10
Official DR value: DR10

Samplerate: 44100 Hz
Channels: 2
Bits per sample: 16
Bitrate: 897 kbps
Codec: FLAC
================================================================================

Dionne Warwicke (Warwick) - Then Came You (1975) Japanese Reissue 2008

Dionne Warwicke (Warwick) - Then Came You (1975) Japanese Reissue 2008