Subcategories
Please register here if you want to download anything!

If domain in your address bar is different from the list below
PLEASE LEAVE THAT SITE IMMEDIATELY
❗IT'S A DANGEROUS FAKE❗



Spicy Magazines for Men! ;-)

Delaney Bramlett - Sweet Inspiration (1989/2004) Reissue 2008

Posted By: Designol
Delaney Bramlett - Sweet Inspiration (1989/2004) Reissue 2008

Delaney Bramlett - Sweet Inspiration (1989/2004) Reissue 2008
EAC | FLAC | Image (Cue&Log) ~ 381 Mb | Mp3 (CBR320) ~ 160 Mb | Scans included | 00:53:54
Blues-Rock, Soul-Blues, R&B, Rock & Roll | Label: Sonic Past Music, Voiceprint | # SPMECD110

Reissue of this 2004 release from the American singer-songwriter. The album was originally recorded in 1989 but remained unreleased for 15 years. Delaney Bramlett is probably best known for his partnership with his former wife Bonnie. Eric Clapton was so enamored of the duo that he subsequently left Blind Faith and toured with Delaney and Bonnie and recorded a live album with them in Europe in 1970 following which Eric recorded his first solo album with much input from Delaney. Other high profile musicians attracted to the Bramletts were Dave Mason, George Harrison and John Lennon.

Delaney Bramlett - Sweet Inspiration (1989/2004) Reissue 2008




Tracklist:

01. Sweet Inspiration (4:02)
02. Gone (3:18)
03. Get In (3:31)
04. Things I Didn't See (5:20)
05. Let It Rain (3:27)
06. Funky (3:28)
07. Stay (4:25)
08. I Have The Feel Of It (3:27)
09. Stay With Me (3:51)
10. Tight Rack (4:31)
11. Sweet Inspiration (Alternate Mix) (4:01)
12. Gone (Alternate Mix) (3:14)
13. Get In (Alternate Mix) (3:35)
14. Let It Rain (Alternate Mix) (3:45)


Exact Audio Copy V1.1 from 23. June 2015

Отчёт EAC об извлечении, выполненном 28. октября 2017, 19:43

Delaney Bramlett / Sweet Inspiration

Дисковод: TEAC CD-W552GB Adapter: 1 ID: 0

Режим чтения : Достоверность
Использование точного потока : Да
Отключение кэша аудио : Да
Использование указателей C2 : Нет

Коррекция смещения при чтении : 6
Способность читать области Lead-in и Lead-out : Нет
Заполнение пропущенных сэмплов тишиной : Да
Удаление блоков с тишиной в начале и конце : Нет
При вычислениях CRC использовались нулевые сэмплы : Да
Интерфейс : Встроенный Win32-интерфейс для Win NT/2000

Выходной формат : Пользовательский кодировщик
Выбранный битрейт : 1024 kBit/s
Качество : Высокий
Добавление ID3-тега : Нет
Утилита сжатия : C:\Program Files (x86)\Exact Audio Copy\Flac\flac.exe
Дополнительные параметры : -V -8 -T "Date=%year%" -T "Genre=%genre%" %source%


TOC извлечённого CD

Трек | Старт | Длительность | Начальный сектор | Конечный сектор
––––––––––––––––––––––––––––––––––-
1 | 0:00.00 | 4:02.30 | 0 | 18179
2 | 4:02.30 | 3:17.40 | 18180 | 32994
3 | 7:19.70 | 3:30.47 | 32995 | 48791
4 | 10:50.42 | 5:20.35 | 48792 | 72826
5 | 16:11.02 | 3:26.70 | 72827 | 88346
6 | 19:37.72 | 3:28.03 | 88347 | 103949
7 | 23:06.00 | 4:25.20 | 103950 | 123844
8 | 27:31.20 | 3:27.00 | 123845 | 139369
9 | 30:58.20 | 3:50.47 | 139370 | 156666
10 | 34:48.67 | 4:31.15 | 156667 | 177006
11 | 39:20.07 | 4:00.68 | 177007 | 195074
12 | 43:21.00 | 3:13.42 | 195075 | 209591
13 | 46:34.42 | 3:34.58 | 209592 | 225699
14 | 50:09.25 | 3:44.40 | 225700 | 242539


Характеристики диапазона извлечения и сообщения об ошибках

Выбранный диапазон

Имя файла D:\CDs\Delaney Bramlett - Sweet Inspiration\Delaney Bramlett - Sweet Inspiration.wav

Пиковый уровень 100.0 %
Скорость извлечения 8.5 X
Качество диапазона 100.0 %
CRC теста 070DB717
CRC копии 070DB717
Копирование… OK

Ошибок не произошло


AccurateRip: сводка

Трек 1 точность не определена (достоверность 1) [0914074B], AccurateRip вернул [854D3DF4] (AR v2)
Трек 2 точность не определена (достоверность 1) [39DB2E51], AccurateRip вернул [C55686C1] (AR v2)
Трек 3 точность не определена (достоверность 1) [9231E1A4], AccurateRip вернул [A761717A] (AR v2)
Трек 4 точность не определена (достоверность 1) [8CDE3504], AccurateRip вернул [65009B0D] (AR v2)
Трек 5 точность не определена (достоверность 1) [AC048D04], AccurateRip вернул [674B8357] (AR v2)
Трек 6 точность не определена (достоверность 1) [E8F91613], AccurateRip вернул [1BD644D1] (AR v2)
Трек 7 точность не определена (достоверность 1) [8F6F7438], AccurateRip вернул [3F50D381] (AR v2)
Трек 8 точность не определена (достоверность 1) [604FF41F], AccurateRip вернул [EA97AA19] (AR v2)
Трек 9 точность не определена (достоверность 1) [E759250D], AccurateRip вернул [FCFF9D76] (AR v2)
Трек 10 точность не определена (достоверность 1) [F0E3C8AA], AccurateRip вернул [9422C302] (AR v2)
Трек 11 точность не определена (достоверность 1) [C4823327], AccurateRip вернул [284A7E00] (AR v2)
Трек 12 точность не определена (достоверность 1) [46D60D89], AccurateRip вернул [9022EF1A] (AR v2)
Трек 13 точность не определена (достоверность 1) [E5BD0DD6], AccurateRip вернул [AB8C5CA4] (AR v2)
Трек 14 точность не определена (достоверность 1) [2AA167AB], AccurateRip вернул [A00A3675] (AR v2)

Ни один трек не прошёл проверки на точность
В вашей базе может быть иной вариант штамповки диска

Конец отчёта

==== Контрольная сумма отчёта 98E0E8D9959F827AC81D8F679CA3A6413D5F34795C9217DC9E804A2B73542B3E ====

[CUETools log; Date: 30.10.2017 7:13:33; Version: 2.1.4]
[CTDB TOCID: QAiv93i8jcYtnkeH9LvMZ4NQKI0-] found.
Track | CTDB Status
1 | (2/2) Accurately ripped
2 | (2/2) Accurately ripped
3 | (2/2) Accurately ripped
4 | (2/2) Accurately ripped
5 | (2/2) Accurately ripped
6 | (2/2) Accurately ripped
7 | (2/2) Accurately ripped
8 | (2/2) Accurately ripped
9 | (2/2) Accurately ripped
10 | (2/2) Accurately ripped
11 | (2/2) Accurately ripped
12 | (2/2) Accurately ripped
13 | (2/2) Accurately ripped
14 | (2/2) Accurately ripped
[AccurateRip ID: 001bff87-012aafba-b90ca10e] found.
Track [ CRC | V2 ] Status
01 [130acf57|0914074b] (0+0/1) No match
02 [7149c07e|39db2e51] (0+0/1) No match
03 [b9e664e8|9231e1a4] (0+0/1) No match
04 [c85a5e1c|8cde3504] (0+0/1) No match
05 [ee55439f|ac048d04] (0+0/1) No match
06 [5319a8e9|e8f91613] (0+0/1) No match
07 [c9d54004|8f6f7438] (0+0/1) No match
08 [6c49ae8a|604ff41f] (0+0/1) No match
09 [aa952172|e759250d] (0+0/1) No match
10 [5de9a4e6|f0e3c8aa] (0+0/1) No match
11 [978e3170|c4823327] (0+0/1) No match
12 [535e43de|46d60d89] (0+0/1) No match
13 [706167ad|e5bd0dd6] (0+0/1) No match
14 [9dc1d397|2aa167ab] (0+0/1) No match
Offsetted by 18:
01 [94fe63f0] (0/1) No match (V2 was not tested)
02 [01622882] (0/1) No match (V2 was not tested)
03 [d3f0e7ec] (0/1) No match (V2 was not tested)
04 [a7f78afe] (0/1) No match (V2 was not tested)
05 [ae6219c5] (0/1) No match (V2 was not tested)
06 [8acc048b] (0/1) No match (V2 was not tested)
07 [7fde1cbe] (0/1) No match (V2 was not tested)
08 [fb625f66] (0/1) No match (V2 was not tested)
09 [c59c8f08] (0/1) No match (V2 was not tested)
10 [075d40d2] (0/1) No match (V2 was not tested)
11 [010e931e] (0/1) No match (V2 was not tested)
12 [a1336934] (0/1) No match (V2 was not tested)
13 [3b2eb4d7] (0/1) No match (V2 was not tested)
14 [14f8512a] (0/1) No match (V2 was not tested)

Track Peak [ CRC32 ] [W/O NULL] [ LOG ]
– 100,0 [070DB717] [4925FDAC] CRC32
01 100,0 [4DFC774E] [09BC6DD8]
02 100,0 [C094C556] [941975AF]
03 100,0 [F859EA4A] [14C2E246]
04 100,0 [B89FBEC4] [6074121F]
05 100,0 [C56B14F8] [3B9F1D1D]
06 100,0 [145282B6] [98ED6057]
07 100,0 [5DE992BB] [C8D79252]
08 100,0 [6FE44AB6] [5B234DD1]
09 100,0 [18E46052] [8E1DE932]
10 100,0 [1620A717] [089FEFB9]
11 100,0 [274A9A9F] [C08111FE]
12 100,0 [7CB9DDC4] [CB96B732]
13 100,0 [CCD7BB25] [A3A2C176]
14 100,0 [FC8DED14] [650524CF]

foobar2000 1.2 / Dynamic Range Meter 1.1.1
log date: 2017-10-30 06:52:19

––––––––––––––––––––––––––––––––––––––––
Analyzed: Delaney Bramlett / Sweet Inspiration
––––––––––––––––––––––––––––––––––––––––

DR Peak RMS Duration Track
––––––––––––––––––––––––––––––––––––––––
DR8 0.00 dB -10.87 dB 4:02 01-Sweet Inspiration
DR9 0.00 dB -9.42 dB 3:18 02-Gone
DR8 0.00 dB -10.04 dB 3:31 03-Get In
DR9 0.00 dB -11.29 dB 5:20 04-Things I Didn't See
DR7 0.00 dB -9.83 dB 3:27 05-Let It Rain
DR9 0.00 dB -11.12 dB 3:28 06-Funky
DR9 0.00 dB -10.90 dB 4:25 07-Stay
DR7 0.00 dB -9.01 dB 3:27 08-I Have The Feel Of It
DR9 0.00 dB -9.88 dB 3:51 09-Stay With Me
DR9 0.00 dB -9.92 dB 4:31 10-Tight Rack
DR8 0.00 dB -10.93 dB 4:01 11-Sweet Inspiration (Alternate Mix)
DR8 0.00 dB -9.96 dB 3:14 12-Gone (Alternate Mix)
DR8 0.00 dB -9.96 dB 3:35 13-Get In (Alternate Mix)
DR9 0.00 dB -10.86 dB 3:45 14-Let It Rain (Alternate Mix)
––––––––––––––––––––––––––––––––––––––––

Number of tracks: 14
Official DR value: DR8

Samplerate: 44100 Hz
Channels: 2
Bits per sample: 16
Bitrate: 893 kbps
Codec: FLAC
================================================================================

Delaney Bramlett - Sweet Inspiration (1989/2004) Reissue 2008

Delaney Bramlett - Sweet Inspiration (1989/2004) Reissue 2008

All thanks to original releaser - squirr

More interesting music in My Blog