Subcategories

Deborah Harry - Def, Dumb & Blonde (1989) [Japanese Release]

Posted By: Designol
Deborah Harry - Def, Dumb & Blonde (1989) [Japanese Release]

Deborah Harry - Def, Dumb & Blonde (1989) [Japanese Release]
EAC | FLAC | Image (Cue&Log) ~ 412 Mb | Mp3 (CBR320) ~ 146 Mb | Scans ~ 62 Mb
Label: Chrysalis/Toshiba EMI Ltd | # TOCP-5927 | Time: 01:03:55
Pop/Rock, Dance-Rock, New Wave

Although Debbie Harry's popularity had decreased by the late '80s, 1989 wasn't a bad year for her at all. That year, Blondie's former lead vocalist successfully portrayed a struggling singer on the brilliant but underrated CBS crime drama Wiseguy, and demonstrated that she could still have considerable fun in the studio. Under the direction of hit producer Mike Chapman – who had worked with Blondie, as well as with everyone from Sweet to Scandal – Harry delivers an eclectic CD that isn't in a class with a Blondie treasure like Parallel Lines but nonetheless has a lot going for it. Much of this new wave-ish pop/rock and European-flavored dance music is heartfelt, clever, and quite memorable. Everything from the charming "Brite Side" (which she performed on Wiseguy) to the addictive "Bike Boy" to the haunting "He Is So" makes it clear that Harry, at 43, was far from a has-been.

Review by Alex Henderson, Allmusic.com

Deborah Harry - Def, Dumb & Blonde (1989) [Japanese Release]



Tracklist:

01. I Want That Man (03:43)
02. Lovelight (03:56)
03. Kiss It Better (04:19)
04. Bike Boy (02:47)
05. Get Your Way (06:14)
06. Maybe For Sure (04:30)
07. I'll Never Fall In Love (03:19)
08. Calmarie (04:42)
09. Sweet And Low (04:49)
10. He Is So (05:10)
11. Bugeye (04:06)
12. Comic Books (02:34)
13. Forced To Live (02:02)
14. Brite Side (04:34)
15. End of the Run (07:03)


Exact Audio Copy V0.99 prebeta 5 from 4. May 2009

EAC extraction logfile from 13. September 2009, 20:03

Deborah Harry / Def Dumb and Blonde (Japanese Version)

Used drive : ASUS DRW-1608P Adapter: 2 ID: 0

Read mode : Secure
Utilize accurate stream : Yes
Defeat audio cache : Yes
Make use of C2 pointers : No

Read offset correction : 48
Overread into Lead-In and Lead-Out : No
Fill up missing offset samples with silence : Yes
Delete leading and trailing silent blocks : No
Null samples used in CRC calculations : Yes
Used interface : Installed external ASPI interface

Used output format : User Defined Encoder
Selected bitrate : 1024 kBit/s
Quality : High
Add ID3 tag : No
Command line compressor : C:\Program Files (x86)\Exact Audio Copy\Flac\flac.exe
Additional command line options : -5 -V -T "ARTIST=%a" -T "TITLE=%t" -T "ALBUM=%g" -T "DATE=%y" -T "TRACKNUMBER=%n" -T "GENRE=%m" -T "COMMENT=EAC FLAC -5" %s


TOC of the extracted CD

Track | Start | Length | Start sector | End sector
––––––––––––––––––––––––––––-
1 | 0:00.00 | 3:43.42 | 0 | 16766
2 | 3:43.42 | 3:56.10 | 16767 | 34476
3 | 7:39.52 | 4:19.23 | 34477 | 53924
4 | 11:59.00 | 2:47.50 | 53925 | 66499
5 | 14:46.50 | 6:14.00 | 66500 | 94549
6 | 21:00.50 | 4:30.15 | 94550 | 114814
7 | 25:30.65 | 3:19.37 | 114815 | 129776
8 | 28:50.27 | 4:42.73 | 129777 | 150999
9 | 33:33.25 | 4:49.70 | 151000 | 172744
10 | 38:23.20 | 5:10.45 | 172745 | 196039
11 | 43:33.65 | 4:06.15 | 196040 | 214504
12 | 47:40.05 | 2:34.57 | 214505 | 226111
13 | 50:14.62 | 2:02.20 | 226112 | 235281
14 | 52:17.07 | 4:34.55 | 235282 | 255886
15 | 56:51.62 | 7:03.45 | 255887 | 287656


Range status and errors

Selected range

Filename F:\Deborah Harry - 1989 (Japan)\Deborah Harry - Def Dumb and Blonde (Japanese Version).wav

Peak level 97.7 %
Range quality 100.0 %
Test CRC 00A7D0D3
Copy CRC 00A7D0D3
Copy OK

No errors occurred


AccurateRip summary

Track 1 not present in database
Track 2 not present in database
Track 3 not present in database
Track 4 not present in database
Track 5 not present in database
Track 6 not present in database
Track 7 not present in database
Track 8 not present in database
Track 9 not present in database
Track 10 not present in database
Track 11 not present in database
Track 12 not present in database
Track 13 not present in database
Track 14 not present in database
Track 15 not present in database

None of the tracks are present in the AccurateRip database

End of status report

[CUETools log; Date: 21.11.2014 15:53:23; Version: 2.1.4]
[CTDB TOCID: Vj__f7nCLT7ZPusr01WnDyOLXFU-] found.
Track | CTDB Status
1 | (1/1) Accurately ripped
2 | (1/1) Accurately ripped
3 | (1/1) Accurately ripped
4 | (1/1) Accurately ripped
5 | (1/1) Accurately ripped
6 | (1/1) Accurately ripped
7 | (1/1) Accurately ripped
8 | (1/1) Accurately ripped
9 | (1/1) Accurately ripped
10 | (1/1) Accurately ripped
11 | (1/1) Accurately ripped
12 | (1/1) Accurately ripped
13 | (1/1) Accurately ripped
14 | (1/1) Accurately ripped
15 | (1/1) Accurately ripped
[AccurateRip ID: 00225537-01866796-b20efb0f] found.
Track [ CRC | V2 ] Status
01 [2202fa70|caa96e96] (2+0/2) Accurately ripped
02 [e7fcbad5|0cd0b7c4] (2+0/2) Accurately ripped
03 [0d95fc25|cecdb3e2] (2+0/2) Accurately ripped
04 [9bf5caf3|a1f3dbda] (2+0/2) Accurately ripped
05 [89be6071|22f53200] (2+0/2) Accurately ripped
06 [0b6e76d9|7b5af660] (2+0/2) Accurately ripped
07 [5b5b866d|c566612c] (2+0/2) Accurately ripped
08 [d68b960f|58be6ad9] (2+0/2) Accurately ripped
09 [488861bf|99f15e83] (2+0/2) Accurately ripped
10 [e3cc6ad7|85d93b72] (2+0/2) Accurately ripped
11 [6b0bdced|3fd059ee] (2+0/2) Accurately ripped
12 [6df6b976|3b38a378] (2+0/2) Accurately ripped
13 [2f938bc6|c08e06a9] (2+0/2) Accurately ripped
14 [b0e7153f|56428a5f] (2+0/2) Accurately ripped
15 [3363ad35|6e312a3d] (2+0/2) Accurately ripped

Track Peak [ CRC32 ] [W/O NULL] [ LOG ]
– 97,7 [00A7D0D3] [9206439B] CRC32
01 97,7 [0AA44C9A] [F6B4FA92]
02 93,1 [28E2539B] [8EA0942C]
03 96,7 [6982C02B] [D671962D]
04 84,5 [531E8146] [BAC28B7E]
05 97,7 [C8BDF714] [09AE3D24]
06 97,7 [A6522EEA] [5DA10989]
07 68,7 [2787D512] [E2E5DDE5]
08 70,4 [4FCFEDB0] [84041650]
09 97,6 [6610A133] [27AF7F77]
10 96,2 [394D8F53] [41F6C949]
11 97,7 [8302B267] [F13B1F91]
12 89,1 [F755191C] [827B2E7A]
13 97,3 [41A1CAFE] [0E3BF7E4]
14 97,7 [AC09D023] [4D5B066C]
15 97,7 [47DAC41A] [9816989C]

foobar2000 1.2 / Dynamic Range Meter 1.1.1
log date: 2014-11-21 14:46:48

––––––––––––––––––––––––––––––––––––––––
Analyzed: Deborah Harry / Def Dumb and Blonde (Japanese Version)
––––––––––––––––––––––––––––––––––––––––

DR Peak RMS Duration Track
––––––––––––––––––––––––––––––––––––––––
DR14 -0.20 dB -16.45 dB 3:44 01-I Want That Man
DR14 -0.61 dB -16.32 dB 3:56 02-Lovelight
DR14 -0.28 dB -16.30 dB 4:19 03-Kiss It Better
DR13 -1.46 dB -15.45 dB 2:48 04-Bike Boy
DR15 -0.20 dB -16.23 dB 6:14 05-Get Your Way
DR13 -0.20 dB -15.88 dB 4:30 06-Maybe For Sure
DR12 -3.26 dB -16.51 dB 3:19 07-I'll Never Fall In Love
DR12 -3.05 dB -17.11 dB 4:43 08-Calmarie
DR13 -0.20 dB -16.01 dB 4:50 09-Sweet And Low
DR14 -0.33 dB -15.95 dB 5:11 10-He Is So
DR15 -0.20 dB -16.28 dB 4:06 11-Bugeye
DR12 -1.00 dB -15.20 dB 2:35 12-Comic Books
DR11 -0.24 dB -13.53 dB 2:02 13-Forced To Live
DR13 -0.20 dB -15.87 dB 4:35 14-Brite Side
DR13 -0.20 dB -14.23 dB 7:04 15-End of the Run
––––––––––––––––––––––––––––––––––––––––

Number of tracks: 15
Official DR value: DR13

Samplerate: 44100 Hz
Channels: 2
Bits per sample: 16
Bitrate: 901 kbps
Codec: FLAC
================================================================================

Deborah Harry - Def, Dumb & Blonde (1989) [Japanese Release]

Deborah Harry - Def, Dumb & Blonde (1989) [Japanese Release]