Subcategories

Dana Fuchs - Love To Beg (2011)

Posted By: popsakov
Dana Fuchs - Love To Beg (2011)

Dana Fuchs - Love To Beg (2011)
EAC Rip | FLAC (Img) + Cue + Log ~ 383 Mb | MP3 CBR320 ~ 145 Mb
Full Scans | 00:50:54 | RAR 5% Recovery
Rock, Blues | Ruf Records #RUF 1167

Dana Fuchs is a throwback to another time: the late '60s and early '70s, when blues-based shouters like Janis Joplin and Robert Plant (in a somewhat different style) were capturing the attention of a generation. Her debt to Joplin is unapologetic – she starred in the off-Broadway musical Love, Janis – and at times maybe a bit too slavish. That's not to say that she brings no other elements to her interpretation of blues and soul-rock styles, only that there are moments on Love to Beg when one might be forgiven for wondering why one would listen to Fuchs when Joplin recordings are still so easily available. At other moments, clear answers to that question present themselves immediately: Fuchs and her band do freight-train blues-rock as well as just about anyone alive (note in particular the unstoppable "Nothing's What I Cry For," which lacks only a melody, and "Faster Than We Can"), and can even create passable and thoroughly enjoyable variants on gospel rock (the wonderful "Summersong") and tender-but-gritty waltzes ("Keepsake," "Keep on Rollin'"). When she covers Otis Redding ("I've Been Loving You Too Long") she does it convincingly; when she simply rocks out ("Drive") she does it more convincingly still. When she reaches for high notes she regularly falls just a bit short, which is too bad – passion counts for a lot, but pitch matters too. Overall, though, this is an impressive effort.

~ Rick Anderson, All Music

***************

Dana Fuchs - Love To Beg (2011)

Track List:

01. Love To Beg [0:04:22.12]
02. Nothing's What I Cry For [0:03:22.01]
03. Golden Eyes [0:04:08.68]
04. Keepsake [0:03:54.44]
05. Set It On Fire [0:03:37.49]
06. Faster Than We Can [0:02:21.10]
07. Keep On Rollin' [0:03:21.74]
08. Drive [0:04:47.96]
09. Summersong [0:03:56.97]
10. Pretty Girl [0:03:56.29]
11. I've Been Loving You Too Long [0:03:33.82]
12. What You See [0:04:29.21]
13. Superman [0:05:02.33]

Exact Audio Copy V0.99 prebeta 4 from 23. January 2008

Отчёт EAC об извлечении, выполненном 15. апреля 2011, 14:30

Dana Fuchs / Love To Beg

Дисковод: Optiarc DVD RW AD-7173A Adapter: 0 ID: 1

Режим чтения : Достоверность
Использование точного потока : Да
Отключение кэша аудио : Да
Использование указателей C2 : Нет

Коррекция смещения при чтении : 48
Способность читать области Lead-in и Lead-out : Нет
Заполнение пропущенных сэмплов тишиной : Да
Удаление блоков с тишиной в начале и конце : Нет
При вычислениях CRC использовались нулевые сэмплы : Да
Интерфейс : Встроенный Win32-интерфейс для Win NT/2000

Выходной формат : Внутренние WAV-операции
Формат сэмплов : 44.100 Гц; 16 бит; стерео


TOC извлечённого CD

Трек | Старт | Длительность | Начальный сектор | Конечный сектор
––––––––––––––––––––––––––––––––––-
1 | 0:00.00 | 4:22.09 | 0 | 19658
2 | 4:22.09 | 3:22.01 | 19659 | 34809
3 | 7:44.10 | 4:08.51 | 34810 | 53460
4 | 11:52.61 | 3:54.33 | 53461 | 71043
5 | 15:47.19 | 3:37.37 | 71044 | 87355
6 | 19:24.56 | 2:21.08 | 87356 | 97938
7 | 21:45.64 | 3:21.56 | 97939 | 113069
8 | 25:07.45 | 4:47.72 | 113070 | 134666
9 | 29:55.42 | 3:56.73 | 134667 | 152439
10 | 33:52.40 | 3:56.22 | 152440 | 170161
11 | 37:48.62 | 3:33.62 | 170162 | 186198
12 | 41:22.49 | 4:29.16 | 186199 | 206389
13 | 45:51.65 | 5:02.25 | 206390 | 229064


Характеристики диапазона извлечения и сообщения об ошибках

Выбранный диапазон

Имя файла D:\КОЛЛЕКЦИЯ 11\Новая папка (2)\Dana Fuchs - Love To Beg.wav

Пиковый уровень 96.6 %
Качество диапазона 100.0 %
CRC теста D526B4A3
CRC копии D526B4A3
Копирование… OK

Ошибок не произошло


AccurateRip: сводка

Трек 1 точность не определена (достоверность 1) [F299495B], AccurateRip вернул [EAA8D243]
Трек 2 точность не определена (достоверность 1) [E46921C4], AccurateRip вернул [6F67D693]
Трек 3 точность не определена (достоверность 1) [BE672F01], AccurateRip вернул [121313B5]
Трек 4 точность не определена (достоверность 1) [5668F5D6], AccurateRip вернул [2A49BC97]
Трек 5 точность не определена (достоверность 1) [9ED3DE06], AccurateRip вернул [164E3E13]
Трек 6 точность не определена (достоверность 1) [D46AE982], AccurateRip вернул [A81C5958]
Трек 7 точность не определена (достоверность 1) [050ED23C], AccurateRip вернул [217A10C0]
Трек 8 точность не определена (достоверность 1) [346D227F], AccurateRip вернул [9949EF8F]
Трек 9 точность не определена (достоверность 1) [397A222A], AccurateRip вернул [6F560C5C]
Трек 10 точность не определена (достоверность 1) [1B4515D1], AccurateRip вернул [3026C06D]
Трек 11 точность не определена (достоверность 1) [BA873B0A], AccurateRip вернул [A47A86DF]
Трек 12 точность не определена (достоверность 1) [E6748B91], AccurateRip вернул [FB0D5F7D]
Трек 13 точность не определена (достоверность 1) [49D6F9AF], AccurateRip вернул [79D584AE]

Ни один трек не прошёл проверки на точность
В вашей базе может быть иной вариант штамповки диска

Конец отчёта

[CUETools log; Date: 14.02.2020 11:22:11; Version: 2.1.6]
[CTDB TOCID: 6PB.qk4cN8IPOs9THQbctsUjiFc-] found.
Track | CTDB Status
1 | (56/56) Accurately ripped
2 | (56/56) Accurately ripped
3 | (56/56) Accurately ripped
4 | (56/56) Accurately ripped
5 | (56/56) Accurately ripped
6 | (56/56) Accurately ripped
7 | (56/56) Accurately ripped
8 | (56/56) Accurately ripped
9 | (56/56) Accurately ripped
10 | (56/56) Accurately ripped
11 | (56/56) Accurately ripped
12 | (56/56) Accurately ripped
13 | (55/56) Accurately ripped
[AccurateRip ID: 0017bf26-00ed6bd3-b70bee0d] found.
Track [ CRC | V2 ] Status
01 [f299495b|eaa8d243] (03+25/42) Accurately ripped
02 [e46921c4|6f67d693] (03+25/42) Accurately ripped
03 [be672f01|121313b5] (03+25/42) Accurately ripped
04 [5668f5d6|2a49bc97] (03+25/42) Accurately ripped
05 [9ed3de06|164e3e13] (03+25/42) Accurately ripped
06 [d46ae982|a81c5958] (03+26/43) Accurately ripped
07 [050ed23c|217a10c0] (03+25/42) Accurately ripped
08 [346d227f|9949ef8f] (03+25/42) Accurately ripped
09 [397a222a|6f560c5c] (03+25/42) Accurately ripped
10 [1b4515d1|3026c06d] (03+25/42) Accurately ripped
11 [ba873b0a|a47a86df] (03+25/42) Accurately ripped
12 [e6748b91|fb0d5f7d] (03+25/42) Accurately ripped
13 [49d6f9af|79d584ae] (03+24/41) Accurately ripped
Offsetted by 18:
01 [5f2a1420] (03/42) Accurately ripped
02 [da484c5b] (03/42) Accurately ripped
03 [c0c1e346] (03/42) Accurately ripped
04 [bc9480ce] (03/42) Accurately ripped
05 [70365e7f] (03/42) Accurately ripped
06 [a8446f1b] (03/43) Accurately ripped
07 [5cd131b6] (03/42) Accurately ripped
08 [08e898bb] (03/42) Accurately ripped
09 [1cf17efd] (03/42) Accurately ripped
10 [19cb1521] (03/42) Accurately ripped
11 [65ed7baf] (03/42) Accurately ripped
12 [d26ea5ee] (03/42) Accurately ripped
13 [9b50d032] (03/41) Accurately ripped
Offsetted by -12:
01 [fc4ea115] (00/42) No match (V2 was not tested)
02 [053204db] (00/42) No match (V2 was not tested)
03 [121c0c2a] (00/42) No match (V2 was not tested)
04 [241aa629] (00/42) No match (V2 was not tested)
05 [3e673465] (00/42) No match (V2 was not tested)
06 [f1ece5c4] (00/43) No match (V2 was not tested)
07 [fee13509] (00/42) No match (V2 was not tested)
08 [4284a970] (00/42) No match (V2 was not tested)
09 [cab0ddb6] (00/42) No match (V2 was not tested)
10 [c63c145b] (00/42) No match (V2 was not tested)
11 [4859ba86] (00/42) No match (V2 was not tested)
12 [0162c887] (00/42) No match (V2 was not tested)
13 [677665a5] (00/41) No match (V2 was not tested)

Track Peak [ CRC32 ] [W/O NULL] [ LOG ]
– 96,6 [D526B4A3] [F7EFB2C5] CRC32
01 95,6 [038205CD] [1DEC423F]
02 96,6 [B9C946E4] [36CEED56]
03 93,3 [988A47CA] [DE20C3A4]
04 93,3 [9F3354F0] [3DB455E9]
05 96,6 [A2B6CB8C] [51D99302]
06 93,3 [B9FADAE3] [BEABF596]
07 96,6 [49C1125D] [E4574D60]
08 96,6 [20BEE313] [50E74966]
09 93,3 [C506634F] [5D8BF279]
10 93,3 [91F82CB9] [C1BE1592]
11 93,3 [1CCFE253] [EE1AC5DA]
12 96,6 [A1CEA693] [5D3F909D]
13 93,4 [B5A67E0C] [9EB7BA97]


Dana Fuchs - Love To Beg (2011)


All thanks go to the original ripper(s) …

>>> My Blog <<<

DOWNLOAD: