Tags
Language
Tags

Charlie Mariano - Mirror (1972) {Warner Japan}

Posted By: tiburon
Charlie Mariano - Mirror (1972) {Warner Japan}

Charlie Mariano - Mirror (1972) {Warner Japan}
EAC 1.1 | FLAC Image level 8 | Cue+Log | Full Scans 300dpi | 250MB + 5% Recovery
MP3 CBR 320 Kbps | 105MB + 5% Recovery
Genre: Jazz, Post-Bop

Charlie Mariano's MIRROR ranks with the best JAZZ ROCK ever recorded! I'm dead serious. If you love Zappa's GRAND WAZOO, Embryo's ROCKSESSION, Return to Forever's NO MYSTERY, or Mahavishnu Orchestra's BIRDS OF FIRE, then you WILL LOVE THIS ALBUM! I've been a fan of Mariano's sax playing, as well as his world music-jazz fusion for awhile, even tho I never looked into buying any of his solo albums. CHARLIE MARIANO started out playing with Mingus (Black Saint and the Sinner Woman). ~ W.T. Hoffman
Track List
01. Himalaya (Mariano) - 5:56
02. Shout (Mariano) - 2:22
03. F Minor Happy (Mariano) - 5:12
04. Theme from Summer of '42 (Legrand) - 5:05
05. Mirror (Mariano) - 8:35
06. Vasi Bindu (Raindrops) (Mariano) - 5:36
07. Madras (Mariano) - 3:06

musicians
Charlie Mariano - alto saxophone (#1-3,5,6), soprano saxophone (#1-3,5,6), flute (#4), bass flute (#4), nagasuram (#7)
David Spinozza - guitar
Pat Rebillot - electric piano, organ
George Mraz - string bass
Tony Levine - electric bass
Ray Lucas - drums
Airto Moreira, Ralph MacDonald - percussion
Asha Puthli - vocals (#5)

Produced by Arif Mardin


Exact Audio Copy V1.1 from 23. June 2015

EAC extraction logfile from 17. May 2016, 18:28

Charlie Mariano / Mirror

Used drive : ASUS DRW-24B1LT Adapter: 5 ID: 1

Read mode : Secure
Utilize accurate stream : Yes
Defeat audio cache : Yes
Make use of C2 pointers : No

Read offset correction : 6
Overread into Lead-In and Lead-Out : No
Fill up missing offset samples with silence : Yes
Delete leading and trailing silent blocks : No
Null samples used in CRC calculations : Yes
Used interface : Installed external ASPI interface

Used output format : User Defined Encoder
Selected bitrate : 768 kBit/s
Quality : High
Add ID3 tag : No
Command line compressor : C:\Program Files\Exact Audio Copy\Flac\flac.exe
Additional command line options : -8 -V -T "ARTIST=%artist%" -T "TITLE=%title%" -T "ALBUM=%albumtitle%" -T "DATE=%year%" -T "TRACKNUMBER=%tracknr%" -T "TOTALTRACKS=%numtracks%" -T "GENRE=%genre%" -T "ALBUMARTIST=%albumartist%" -T "ALBUM ARTIST=%albumartist%" -T "COMMENT=EAC Secure Mode, Test & Copy, AccurateRip, FLAC -8" %source%


TOC of the extracted CD

Track | Start | Length | Start sector | End sector
––––––––––––––––––––––––––––-
1 | 0:00.00 | 5:55.74 | 0 | 26698
2 | 5:55.74 | 2:22.26 | 26699 | 37374
3 | 8:18.25 | 5:12.19 | 37375 | 60793
4 | 13:30.44 | 5:05.23 | 60794 | 83691
5 | 18:35.67 | 8:34.55 | 83692 | 122296
6 | 27:10.47 | 5:35.56 | 122297 | 147477
7 | 32:46.28 | 3:06.19 | 147478 | 161446


Range status and errors

Selected range

Filename F:\audio\Charlie Mariano - Mirror.wav

Peak level 100.0 %
Extraction speed 5.1 X
Range quality 100.0 %
Test CRC FFAA41CD
Copy CRC FFAA41CD
Copy OK

No errors occurred


AccurateRip summary

Track 1 not present in database
Track 2 not present in database
Track 3 not present in database
Track 4 not present in database
Track 5 not present in database
Track 6 not present in database
Track 7 not present in database

None of the tracks are present in the AccurateRip database

End of status report

–– CUETools DB Plugin V2.1.6

[CTDB TOCID: j100F2JT9Buk9J5USG69DkXm1_I-] found
Submit result: j100F2JT9Buk9J5USG69DkXm1_I- has been confirmed
Track | CTDB Status
1 | (1/1) Accurately ripped
2 | (1/1) Accurately ripped
3 | (1/1) Accurately ripped
4 | (1/1) Accurately ripped
5 | (1/1) Accurately ripped
6 | (1/1) Accurately ripped
7 | (1/1) Accurately ripped


==== Log checksum C12743B4D508757C19454EC5CA65821F7E3248F3B65D533F99E3A94451C4EA6D ====


––––––––––––––––––––––––––––––––––––––––
Analyzed: Charlie Mariano / Mirror
––––––––––––––––––––––––––––––––––––––––

DR Peak RMS Duration Track
––––––––––––––––––––––––––––––––––––––––
DR9 0.00 dB -10.35 dB 5:56 01-Himalaya
DR8 0.00 dB -10.78 dB 2:22 02-Shout
DR7 0.00 dB -8.61 dB 5:12 03-F Minor Happy
DR10 0.00 dB -13.82 dB 5:05 04-Theme from Summer of '42
DR7 0.00 dB -9.33 dB 8:35 05-Mirror
DR11 0.00 dB -14.56 dB 5:36 06-Vasi Bindu (Raindrops)
DR8 0.00 dB -10.97 dB 3:06 07-Madras
––––––––––––––––––––––––––––––––––––––––

Number of tracks: 7
Official DR value: DR9

Samplerate: 44100 Hz
Channels: 2
Bits per sample: 16
Bitrate: 885 kbps
Codec: FLAC
================================================================================

Charlie Mariano - Mirror (1972) {Warner Japan}
Charlie Mariano - Mirror (1972) {Warner Japan}
Charlie Mariano - Mirror (1972) {Warner Japan}


Thanks to the original ripper