Subcategories
Tags
Language
Tags

Bruce Dickinson - Balls To Picasso (1994) [2CD, Expanded Edition]

Posted By: v3122
Bruce Dickinson - Balls To Picasso (1994) [2CD, Expanded Edition]

Bruce Dickinson - Balls To Picasso (1994)
EAC | Flac(Image) + Cue + Log & MP3 CBR 320Kbps
2005 | Sanctuary Records, SMEDD199 | ~ 951 or 308 Mb | Artwork(jpg) -> 45 Mb
Heavy Metal

Immediately following his departure from metal legends Iron Maiden, singer and jack of all trades Bruce Dickinson signed a new deal stateside to Mercury Records and went to work on his second solo effort. Notwithstanding some dreadful artwork, his Polygram debut, Balls to Picasso, is somewhat of a disappointment and, for the most part, an ill-conceived project. Eager to get away from the classic galloping we'll-march-to-the-war Maiden sound, the singer joins forces with a band by the name of Tribe of Gypsies. The band (which managed to generate quite a buzz on its own but alas never found a home for itself) features Roy Z, Dickinson's chief collaborator/songwriting partner for this album. Eddie jokes aside, if Dickinson wanted to get away from the classic Iron Maiden sound, he sure does a good job on this album. Unfortunately, the singer fails to come up with anything truly groundbreaking or even interesting here (save for the album closer, "Tears of a Dragon"). Balls to Picasso gets underway with the messy, seven-minute "Cyclops." Following it is "Hell No," which, again, makes a valid argument for the singer's newfound musical freedom and prerogative to shun a sound that he once helped create. Not only is "Hell No" not Maiden-ish at all, it gives way to the über-heavy, down-tuned rumblings of "Gods of War" – which takes flight like some sort of ode to Pantera gone New Wave of British Heavy Metal. The end result? Nothing substantial. Maybe a good idea on paper but definitely lost somewhere along the way in the execution. Moving forward, "1000 Points of Light" is another faux pas. Nicking its main riff from, of all places, Living Colour's "Cult of Personality," the cut erupts into a bizarre Queensrÿche-meets-Prong chorus and bridge that leave one scratching his or her head. Only Dickinson's strong vocal delivery manages to salvage the song from being a complete disaster. Other cuts like "Laughing in the Hiding Bush" and the soft "Change of Heart" fare a little better. Bongos give way to the lyrically challenged "Shoot all the Clowns," which, stunningly, comes across like some sort of bad L.A. hair metal experiment meets "Welcome to the Jungle." "Fire," a strange stream-of-consciousness warble, gives way to a classic Maiden-type chorus. Just when you thought all was lost, surprise of all surprises, the album closes with the absolutely magnificent "Tears of a Dragon." Maybe it's the cut's familiar Iron Maiden aesthetic, or perhaps it's Dickinson's wonderful vocal delivery. Who really knows. But what is known is that it's by far the album's best song. Superficially, it threads typical Dickinson territory. However, upon closer inspection, it's obvious that with lyrics like "where I was, I had wings that couldn't fly," there's no love lost between the singer and his former bandmates. It's clear that the singer makes a clear open and shut case for his need to "release the wave and let it wash over me" as he sings about unburdening himself from the artistically stifling direction of his previous outfit. Looking back, the singer made very few new friends with this release and would go on to record far superior solo records like Accident of Birth and The Chemical Wedding. These last two records in particular would see the singer receive worldwide press accolades and a warm reception from some old-school Maiden fans. Again, deservedly and predictably, the album's closer, which musically veers into familiar Maiden territory, is probably what the singer's fans expected all along. Also worth noting, the musical direction of the aforementioned track would be later revisited six years down the road – it would foreshadow a direction that the Dickinson-reunited Maiden would take on some of Brave New World's more introspective songs.

by John Franck, allmusic
Bruce Dickinson - Balls To Picasso (1994):

Bruce Dickinson - Balls To Picasso (1994) [2CD, Expanded Edition]

Tracklist CD1:

01. Cyclops
02. Hell No
03. Gods Of War
04. 1000 Points Of Light
05. Laughing In The Hiding Bush
06. Change Of Heart
07. Shoot All The Clowns
08. Fire
09. Sacred Cowboys
10. Tears Of The Dragon

Exact Audio Copy V1.3 from 2. September 2016

EAC extraction logfile from 15. January 2019, 0:00

BRUCE DICKINSON / Balls to Picasso - Expanded Edition - CD1

Used drive : HL-DT-STBD-RE BH10LS30 Adapter: 1 ID: 1

Read mode : Secure
Utilize accurate stream : Yes
Defeat audio cache : Yes
Make use of C2 pointers : No

Read offset correction : 667
Overread into Lead-In and Lead-Out : No
Fill up missing offset samples with silence : Yes
Delete leading and trailing silent blocks : No
Null samples used in CRC calculations : Yes
Used interface : Native Win32 interface for Win NT & 2000

Used output format : User Defined Encoder
Selected bitrate : 768 kBit/s
Quality : High
Add ID3 tag : No
Command line compressor : C:\Program Files (x86)\Exact Audio Copy\FLAC\FLAC.EXE
Additional command line options : -6 -V -T "ARTIST=%artist%" -T "TITLE=%title%" -T "ALBUM=%albumtitle%" -T "DATE=%year%" -T "TRACKNUMBER=%tracknr%" -T "GENRE=%genre%" -T "COMMENT=%comment%" -T "BAND=%albuminterpret%" -T "ALBUMARTIST=%albuminterpret%" -T "COMPOSER=%composer%" %haslyrics%–tag-from-file=LYRICS="%lyricsfile%"%haslyrics% -T "DISCNUMBER=%cdnumber%" -T "TOTALDISCS=%totalcds%" -T "TOTALTRACKS=%numtracks%" %hascover%–picture="%coverfile%"%hascover% %source% -o %dest%


TOC of the extracted CD

Track | Start | Length | Start sector | End sector
––––––––––––––––––––––––––––-
1 | 0:00.00 | 7:58.20 | 0 | 35869
2 | 7:58.20 | 5:11.47 | 35870 | 59241
3 | 13:09.67 | 5:02.16 | 59242 | 81907
4 | 18:12.08 | 4:25.28 | 81908 | 101810
5 | 22:37.36 | 4:20.50 | 101811 | 121360
6 | 26:58.11 | 4:58.27 | 121361 | 143737
7 | 31:56.38 | 4:24.22 | 143738 | 163559
8 | 36:20.60 | 4:30.14 | 163560 | 183823
9 | 40:50.74 | 3:53.63 | 183824 | 201361
10 | 44:44.62 | 6:24.01 | 201362 | 230162


Range status and errors

Selected range

Filename E:\Música\EAC\Dickinson\BRUCE DICKINSON - Balls to Picasso - Expanded Edition - CD1.wav

Peak level 100.0 %
Extraction speed 1.8 X
Range quality 100.0 %
Test CRC 229AAB4B
Copy CRC 229AAB4B
Copy OK

No errors occurred


AccurateRip summary

Track 1 accurately ripped (confidence 2) [6AD1D5ED] (AR v2)
Track 2 accurately ripped (confidence 2) [39D9F5DC] (AR v2)
Track 3 accurately ripped (confidence 2) [B259D559] (AR v2)
Track 4 accurately ripped (confidence 2) [C6D93064] (AR v2)
Track 5 accurately ripped (confidence 2) [3EBC9555] (AR v2)
Track 6 accurately ripped (confidence 2) [9329F748] (AR v2)
Track 7 accurately ripped (confidence 2) [E4063743] (AR v2)
Track 8 accurately ripped (confidence 2) [62A6EC14] (AR v2)
Track 9 accurately ripped (confidence 2) [D5CF2538] (AR v2)
Track 10 accurately ripped (confidence 2) [C13BF7ED] (AR v2)

All tracks accurately ripped

End of status report

–– CUETools DB Plugin V2.1.6

[CTDB TOCID: St.cjU9P2yg.iIsnJWsAFoKOHdU-] found
Submit result: St.cjU9P2yg.iIsnJWsAFoKOHdU- has been confirmed
Track | CTDB Status
1 | (105/105) Accurately ripped
2 | (104/105) Accurately ripped
3 | (104/105) Accurately ripped
4 | (105/105) Accurately ripped
5 | (105/105) Accurately ripped
6 | (103/105) Accurately ripped
7 | (104/105) Accurately ripped
8 | (104/105) Accurately ripped
9 | (103/105) Accurately ripped
10 | (104/105) Accurately ripped


==== Log checksum 8D6A7D1B051F91E791F649E8D2148932EB01272ADC97B80E6C9BF11686169BEF ====


[CUETools log; Date: 04.04.2020 11:08:58; Version: 2.1.4]
[AccurateRip ID: 00142f57-009d9adb-8b0bfc0a] found.
Track [ CRC | V2 ] Status
01 [0f7fe6d4|6ad1d5ed] (00+05/75) Accurately ripped
02 [c627e663|39d9f5dc] (00+05/75) Accurately ripped
03 [9b2ab479|b259d559] (00+05/75) Accurately ripped
04 [feac9b0f|c6d93064] (00+05/75) Accurately ripped
05 [62e26067|3ebc9555] (00+05/75) Accurately ripped
06 [fc849ee5|9329f748] (00+05/74) Accurately ripped
07 [c4fb1bc7|e4063743] (00+05/75) Accurately ripped
08 [57540c9d|62a6ec14] (00+05/74) Accurately ripped
09 [537c8b81|d5cf2538] (00+05/75) Accurately ripped
10 [ef305853|c13bf7ed] (00+05/75) Accurately ripped
Offsetted by 646:
01 [f95b51a5] (02/75) Accurately ripped
02 [347f1b0a] (02/75) Accurately ripped
03 [889024df] (02/75) Accurately ripped
04 [223a62c7] (02/75) Accurately ripped
05 [282e807f] (02/75) Accurately ripped
06 [2f440b98] (02/74) Accurately ripped
07 [851468a8] (02/75) Accurately ripped
08 [fccf2e1d] (02/74) Accurately ripped
09 [36123dee] (02/75) Accurately ripped
10 [f242e936] (02/75) Accurately ripped
Offsetted by 664:
01 [fb2996f5] (12/75) Accurately ripped
02 [4f9e437a] (12/75) Accurately ripped
03 [2db11691] (12/75) Accurately ripped
04 [e0a493ef] (12/75) Accurately ripped
05 [971742c7] (12/75) Accurately ripped
06 [a7de5ee8] (12/74) Accurately ripped
07 [912ed438] (12/75) Accurately ripped
08 [8c1eb29d] (12/74) Accurately ripped
09 [9fa476c8] (12/75) Accurately ripped
10 [e84292ac] (12/75) Accurately ripped
Offsetted by 1328:
01 [32b3db30] (13/75) Accurately ripped
02 [9f17594f] (13/75) Accurately ripped
03 [c03778a9] (13/75) Accurately ripped
04 [c29c8ccf] (13/75) Accurately ripped
05 [cb4c2527] (13/75) Accurately ripped
06 [3c622d76] (12/74) Accurately ripped
07 [a910122a] (13/75) Accurately ripped
08 [c0e9589d] (12/74) Accurately ripped
09 [d47e1d25] (13/75) Accurately ripped
10 [680fd247] (13/75) Accurately ripped
Offsetted by 652:
01 [0784bf7c] (00/75) No match (V2 was not tested)
02 [e84028d3] (00/75) No match (V2 was not tested)
03 [6a45cac5] (00/75) No match (V2 was not tested)
04 [0c5dc87f] (00/75) No match (V2 was not tested)
05 [a27c1697] (00/75) No match (V2 was not tested)
06 [318dc55b] (00/74) No match (V2 was not tested)
07 [891d8c79] (00/75) No match (V2 was not tested)
08 [81e9af9d] (00/74) No match (V2 was not tested)
09 [b3d0c131] (00/75) No match (V2 was not tested)
10 [437a765b] (00/75) No match (V2 was not tested)

Track Peak [ CRC32 ] [W/O NULL] [ LOG ]
– 100,0 [229AAB4B] [BA084C20] CRC32
01 99,9 [A84AA17B] [952965C7]
02 99,9 [2E55A048] [18E13EE9]
03 99,9 [06E95486] [9890F8D6]
04 100,0 [1660DBB0] [4471F8C0]
05 99,9 [CD096988] [E1CA5A05]
06 99,9 [ED36566A] [A14B847C]
07 99,9 [A4C214C2] [63189AE6]
08 99,9 [FFCD6B65] [2933F1B7]
09 99,9 [A4E16B75] [EA590B34]
10 99,9 [2F11CCE4] [F4539FA3]


Bruce Dickinson - Balls To Picasso (1994) [2CD, Expanded Edition]

Tracklist CD2:

01. Fire Child
02. Elvis Has Left The Building
03. The Breeding House
04. No Way Out… To Be Continued
05. Tears Of The Dragon (Acoustic)
06. Winds Of Change
07. Spirit Of Joy
08. Over and Out
09. Shoot All The Clowns (12' Extended remix)
10. Laughing In The Hiding Bush (Live)
11. The Post Alternative Seattle Fall Out (Live)
12. Shoot All The Clowns (7' remix)
13. Tibet (3:03)
14. Tears Of The Dragon (First Bit, Long Bit, Last Bit)
15. Cadillac Gas Mask
16. No Way Out… Continued

Exact Audio Copy V1.3 from 2. September 2016

EAC extraction logfile from 15. January 2019, 16:29

BRUCE DICKINSON / Balls to Picasso - Expanded Edition - CD2

Used drive : ASUS DRW-24D5MT Adapter: 1 ID: 0

Read mode : Secure
Utilize accurate stream : Yes
Defeat audio cache : Yes
Make use of C2 pointers : No

Read offset correction : 6
Overread into Lead-In and Lead-Out : No
Fill up missing offset samples with silence : Yes
Delete leading and trailing silent blocks : No
Null samples used in CRC calculations : Yes
Used interface : Native Win32 interface for Win NT & 2000

Used output format : User Defined Encoder
Selected bitrate : 768 kBit/s
Quality : High
Add ID3 tag : No
Command line compressor : C:\Program Files (x86)\Exact Audio Copy\FLAC\FLAC.EXE
Additional command line options : -6 -V -T "ARTIST=%artist%" -T "TITLE=%title%" -T "ALBUM=%albumtitle%" -T "DATE=%year%" -T "TRACKNUMBER=%tracknr%" -T "GENRE=%genre%" -T "COMMENT=%comment%" -T "BAND=%albuminterpret%" -T "ALBUMARTIST=%albuminterpret%" -T "COMPOSER=%composer%" %haslyrics%–tag-from-file=LYRICS="%lyricsfile%"%haslyrics% -T "DISCNUMBER=%cdnumber%" -T "TOTALDISCS=%totalcds%" -T "TOTALTRACKS=%numtracks%" %hascover%–picture="%coverfile%"%hascover% %source% -o %dest%


TOC of the extracted CD

Track | Start | Length | Start sector | End sector
––––––––––––––––––––––––––––-
1 | 0:00.00 | 6:23.27 | 0 | 28751
2 | 6:23.27 | 3:23.04 | 28752 | 43980
3 | 9:46.31 | 5:18.62 | 43981 | 67892
4 | 15:05.18 | 7:30.55 | 67893 | 101697
5 | 22:35.73 | 4:31.70 | 101698 | 122092
6 | 27:07.68 | 4:13.72 | 122093 | 141139
7 | 31:21.65 | 3:12.44 | 141140 | 155583
8 | 34:34.34 | 4:31.37 | 155584 | 175945
9 | 39:05.71 | 5:38.25 | 175946 | 201320
10 | 44:44.21 | 4:16.66 | 201321 | 220586
11 | 49:01.12 | 5:03.41 | 220587 | 243352
12 | 54:04.53 | 4:16.59 | 243353 | 262611
13 | 58:21.37 | 3:02.39 | 262612 | 276300
14 | 61:24.01 | 8:19.24 | 276301 | 313749
15 | 69:43.25 | 4:08.23 | 313750 | 332372
16 | 73:51.48 | 5:21.01 | 332373 | 356448


Range status and errors

Selected range

Filename E:\Música\EAC\Dickinson\BRUCE DICKINSON - Balls to Picasso - Expanded Edition - CD2.wav

Peak level 100.0 %
Extraction speed 8.3 X
Range quality 100.0 %
Test CRC 510CE862
Copy CRC 510CE862
Copy OK

No errors occurred


AccurateRip summary

Track 1 accurately ripped (confidence 2) [81C561F1] (AR v2)
Track 2 accurately ripped (confidence 2) [776B1CDC] (AR v2)
Track 3 accurately ripped (confidence 2) [96DAB0B4] (AR v2)
Track 4 accurately ripped (confidence 2) [A3390907] (AR v2)
Track 5 accurately ripped (confidence 2) [51C98FB6] (AR v2)
Track 6 accurately ripped (confidence 2) [2B4FEBA9] (AR v2)
Track 7 accurately ripped (confidence 2) [3F599B3D] (AR v2)
Track 8 accurately ripped (confidence 2) [0E4C727F] (AR v2)
Track 9 accurately ripped (confidence 2) [E0D38AB3] (AR v2)
Track 10 accurately ripped (confidence 2) [3E227D6E] (AR v2)
Track 11 accurately ripped (confidence 2) [633EF4B3] (AR v2)
Track 12 accurately ripped (confidence 2) [9EE8F0AD] (AR v2)
Track 13 accurately ripped (confidence 2) [F6063EA0] (AR v2)
Track 14 accurately ripped (confidence 2) [60C26578] (AR v2)
Track 15 accurately ripped (confidence 2) [F531A3F7] (AR v2)
Track 16 accurately ripped (confidence 2) [2B641F83] (AR v2)

All tracks accurately ripped

End of status report

–– CUETools DB Plugin V2.1.6

[CTDB TOCID: tCLsbCcNwOSiZuNKkmwFn2nkQBE-] found
Submit result: tCLsbCcNwOSiZuNKkmwFn2nkQBE- has been confirmed
Track | CTDB Status
1 | (90/91) Accurately ripped
2 | (90/91) Accurately ripped
3 | (90/91) Accurately ripped
4 | (90/91) Accurately ripped
5 | (90/91) Accurately ripped
6 | (90/91) Accurately ripped
7 | (91/91) Accurately ripped
8 | (91/91) Accurately ripped
9 | (91/91) Accurately ripped
10 | (91/91) Accurately ripped
11 | (91/91) Accurately ripped
12 | (91/91) Accurately ripped
13 | (91/91) Accurately ripped
14 | (91/91) Accurately ripped
15 | (91/91) Accurately ripped
16 | (89/91) Accurately ripped


==== Log checksum 40173CCF573182D986F174F2ADE30B3E06A0A12E55423302F3208E1B5069A7F0 ====


[CUETools log; Date: 04.04.2020 11:13:41; Version: 2.1.4]
[AccurateRip ID: 002e71f9-02290abe-06129010] found.
Track [ CRC | V2 ] Status
01 [79c9464e|81c561f1] (00+05/70) Accurately ripped
02 [481e3e15|776b1cdc] (00+05/69) Accurately ripped
03 [363f93e8|96dab0b4] (00+05/70) Accurately ripped
04 [c668a395|a3390907] (00+05/70) Accurately ripped
05 [4f120967|51c98fb6] (00+05/69) Accurately ripped
06 [40a88ea2|2b4feba9] (00+05/68) Accurately ripped
07 [a8071eba|3f599b3d] (00+05/69) Accurately ripped
08 [9209c495|0e4c727f] (00+05/69) Accurately ripped
09 [6addb107|e0d38ab3] (00+05/69) Accurately ripped
10 [ccad307c|3e227d6e] (00+05/69) Accurately ripped
11 [6bda29b8|633ef4b3] (00+05/69) Accurately ripped
12 [a555361d|9ee8f0ad] (00+05/69) Accurately ripped
13 [0d457ebf|f6063ea0] (00+05/69) Accurately ripped
14 [34fb40f9|60c26578] (00+05/69) Accurately ripped
15 [3210476a|f531a3f7] (00+05/70) Accurately ripped
16 [79405e5f|2b641f83] (00+05/68) Accurately ripped
Offsetted by 664:
01 [12f13381] (12/70) Accurately ripped
02 [257b94e9] (12/69) Accurately ripped
03 [934145aa] (12/70) Accurately ripped
04 [a9c20c2c] (12/70) Accurately ripped
05 [dca8beed] (12/69) Accurately ripped
06 [24263a72] (12/68) Accurately ripped
07 [b572c36d] (12/69) Accurately ripped
08 [59548b00] (12/69) Accurately ripped
09 [8c30b716] (12/69) Accurately ripped
10 [746b95c8] (12/69) Accurately ripped
11 [93dfe3f7] (12/69) Accurately ripped
12 [3ff1ab26] (12/69) Accurately ripped
13 [121af118] (12/69) Accurately ripped
14 [c647c245] (12/69) Accurately ripped
15 [a50a6f82] (12/70) Accurately ripped
16 [9bb0ae25] (12/68) Accurately ripped
Offsetted by 1292:
01 [556fc9b5] (02/70) Accurately ripped
02 [d11e101f] (02/69) Accurately ripped
03 [b5e093dc] (02/70) Accurately ripped
04 [31a2d028] (02/70) Accurately ripped
05 [a8fca671] (02/69) Accurately ripped
06 [ae605f12] (02/68) Accurately ripped
07 [513f218e] (02/69) Accurately ripped
08 [820e8ee9] (02/69) Accurately ripped
09 [f8d5719a] (02/69) Accurately ripped
10 [e0194ad8] (02/69) Accurately ripped
11 [4fb74656] (02/69) Accurately ripped
12 [80fbd1d7] (02/69) Accurately ripped
13 [cf807761] (02/69) Accurately ripped
14 [2127c660] (02/69) Accurately ripped
15 [6b49b418] (02/70) Accurately ripped
16 [ea60ca7c] (02/68) Accurately ripped
Offsetted by 1328:
01 [976b631a] (11/70) Accurately ripped
02 [ac68cbe9] (10/69) Accurately ripped
03 [583350f0] (11/70) Accurately ripped
04 [f7474d04] (11/70) Accurately ripped
05 [b65a151a] (10/69) Accurately ripped
06 [5c83307e] (10/68) Accurately ripped
07 [4b9cc200] (10/69) Accurately ripped
08 [9e32fc14] (10/69) Accurately ripped
09 [c831245a] (10/69) Accurately ripped
10 [1673ef39] (10/69) Accurately ripped
11 [e67e14b1] (10/69) Accurately ripped
12 [10641fcf] (10/69) Accurately ripped
13 [ab8e5926] (10/69) Accurately ripped
14 [4e4849e8] (10/69) Accurately ripped
15 [bc8aea2a] (11/70) Accurately ripped
16 [e6e80ff9] (10/68) Accurately ripped
Offsetted by 652:
01 [08194bc3] (00/70) No match (V2 was not tested)
02 [bbf24fc7] (00/69) No match (V2 was not tested)
03 [4b759380] (00/70) No match (V2 was not tested)
04 [5424fd1f] (00/70) No match (V2 was not tested)
05 [dd0995fa] (00/69) No match (V2 was not tested)
06 [9410b211] (00/68) No match (V2 was not tested)
07 [faa50563] (00/69) No match (V2 was not tested)
08 [54411f82] (00/69) No match (V2 was not tested)
09 [9a7e7a8d] (00/69) No match (V2 was not tested)
10 [b78152ef] (00/69) No match (V2 was not tested)
11 [df69fba6] (00/69) No match (V2 was not tested)
12 [8932f59f] (00/69) No match (V2 was not tested)
13 [4c160b41] (00/69) No match (V2 was not tested)
14 [b7f59564] (00/69) No match (V2 was not tested)
15 [3a77e2d5] (00/70) No match (V2 was not tested)
16 [e3989649] (00/68) No match (V2 was not tested)
Offsetted by 1298:
01 [7113b69b] (00/70) No match (V2 was not tested)
02 [10c584cb] (00/69) No match (V2 was not tested)
03 [29c51c38] (00/70) No match (V2 was not tested)
04 [82063104] (00/70) No match (V2 was not tested)
05 [2cc4b8e4] (00/69) No match (V2 was not tested)
06 [12648816] (00/68) No match (V2 was not tested)
07 [e304804d] (00/69) No match (V2 was not tested)
08 [15878a7b] (00/69) No match (V2 was not tested)
09 [9b613a14] (00/69) No match (V2 was not tested)
10 [63d8b5b6] (00/69) No match (V2 was not tested)
11 [69633fd1] (00/69) No match (V2 was not tested)
12 [41faac7a] (00/69) No match (V2 was not tested)
13 [9b0a98bd] (00/69) No match (V2 was not tested)
14 [2aeddbde] (00/69) No match (V2 was not tested)
15 [a095060a] (00/70) No match (V2 was not tested)
16 [3ad55a01] (00/68) No match (V2 was not tested)

Track Peak [ CRC32 ] [W/O NULL] [ LOG ]
– 100,0 [510CE862] [DB21F2D6] CRC32
01 100,0 [AC714660] [D4EB1C7D]
02 100,0 [6FD6BE42] [7E41EA26]
03 93,7 [0768B110] [E862463C]
04 90,9 [548E8E63] [2C396063]
05 100,0 [E50E58B7] [0465234E]
06 100,0 [D7BF8B70] [8C04DB96]
07 92,9 [09CEAB20] [194EBC1F]
08 98,8 [45207E85] [21B43F3E]
09 98,8 [A1AD6BA9] [684F796B]
10 98,8 [BC10BA1B] [8E619C58]
11 98,8 [35F8DAD4] [85A52BF5]
12 98,8 [1B0799AA] [F74943F6]
13 98,8 [BABBA2A1] [42DAB383]
14 98,8 [0DA7BC7E] [3943924C]
15 98,8 [AA190E65] [F27CC736]
16 98,8 [DEBCDEB6] [599C437C]


Bruce Dickinson - Balls To Picasso (1994) [2CD, Expanded Edition]

All thanks go to JarpoMarx

Bruce Dickinson in my Blog

Download Bruce Dickinson - Balls To Picasso (1994):