Subcategories

Brian Eno - Eno Box I: Instrumental (1993) 3 CD Box Set [Re-Up]

Posted By: Designol
Brian Eno - Eno Box I: Instrumental (1993) 3 CD Box Set [Re-Up]

Brian Eno - Eno Box I: Instrumental (1993) 3 CD Box Set
EAC | FLAC | Tracks (Cue&Log) ~ 943 Mb | Mp3 (CBR320) ~ 534 Mb | Scans included + Booklet
Experimental Electronic, Art Rock, Ambient | Label: Virgin | # ENOBX 1 | Time: 03:49:13

Ever the iconoclast, if there is one thing that Brian Eno has done with any degree of consistency throughout his varied career, it is presenting his art in an array of perpetually "out of the box" forums. All that changed – in a manner of speaking – with the release of two companion multi-disc compilations. Eno Box I: Instrumentals (1994) condenses his wordless creations, while Eno Box II: Vocals (1993) does the same for the rest of his major works on a similarly sized volume. Interestingly – and in his typically contrary fashion – this initial installment was actually issued last. Each of Eno Box I: Instrumentals' three CDs respectively concentrates on a specific facet of the artist's copious back catalog. Disc one takes a more or less chronological approach to instrumental selections from the Eno albums Another Green World (1975) and Before and After Science (1977) prior to focusing on his movie music. "Dover Beach" – his contribution to the Derek Jarman-directed masterpiece Jubilee (1978) – is then followed by titles from the limited-edition vinyl promotional Directors' Edition of Music for Films (1976), the publicly released Music for Films (1978), and Music for Films, Vol. 2 (1983), concluding with several sides from Music for Films, Vol. 3 (1988). Disc two picks right up where the first left off, garnering four additional Music for Films, Vol. 3 entries prior to providing an overview to Eno's collaborations with notables such as David Bowie, Jon Hassell, Harold Budd, Daniel Lanois, Roger Eno, and Robert Fripp. Disc three then offers samplings from Music for Airports (1978), The Shutov Assembly (1992), On Land (1982), Thursday Afternoon (1985), Discreet Music (1975), and Neroli (1993), several of which have been truncated for inclusion here. It is also worth mentioning that all the contents are encoded with exceptionally high-fidelity super-bit mapping. The physical box itself is an elaborate affair designed by Russell Mills, and the 30-page liner booklet contains text by U.K. rock critic Paul Morley and the usual discographical information that states the sources for each of the 54 entries.

Review by Lindsay Planer, Allmusic.com

Brian Eno - Eno Box I: Instrumental (1993) 3 CD Box Set [Re-Up]

Brian Eno - Eno Box I: Instrumental (1993) 3 CD Box Set [Re-Up]



Tracklist:

CD1:

01. Another Green World (01:40)
02. Energy Fools the Magician (02:07)
03. Dover Beach (04:37)
04. Slow Water (03:18)
05. Untitled (02:05)
06. Chemin de Fer (01:58)
07. Empty Landscape (01:25)
08. Reactor (01:40)
09. The Secret (01:13)
10. Don't Look Back (00:59)
11. Marseilles (01:29)
12. Two Rapid Formations (03:26)
13. Sparrowfall I (01:11)
14. Sparrowfall II (01:44)
15. Sparrowfall III (01:24)
16. Events in Dense Fog (03:43)
17. 'There Is Nobody' (01:44)
18. Patrolling Wire Borders (01:43)
19. A Measured Room (01:03)
20. Task Force (01:22)
21. M386 (02:50)
22. Final Sunset (04:11)
23. The Dove (01:26)
24. Roman Twilight (03:38)
25. Dawn, Marshland (03:13)
26. Always Returning I (04:36)
27. Signals (03:59)
28. Drift Study (02:31)
29. Approaching Taidu (03:26)
30. Always Returning II (03:09)
31. Asian River (04:22)

CD2:

01. Theme From Creation (03:07)
02. Saint Tom (03:36)
03. Warszawa (06:21)
04. Chemistry (06:53)
05. Courage (03:39)
06. Moss Garden (05:19)
07. Tension Block (03:14)
08. Strong Flashes Of Light (03:07)
09. More Volts (02:50)
10. Mist / Rhythm (03:35)
11. Ho Renomo (05:07)
12. A Stream With Bright Fish (03:54)
13. Fleeting Smile (02:31)
14. An Arc Of Doves (06:22)
15. Stars (07:56)
16. An Index Of Metals (Edit) (07:13)

CD3:

01. 1/1 (16:36)
02. Ikebukuro (Edit) (07:19)
03. The Lost Day (09:14)
04. Thursday Afternoon (Edit) (11:50)
05. Discreet Music (Edit) (15:01)
06. Dunwich Beach, Autumn 1960 (07:09)
07. Neroli (Edit) (09:41)


Exact Audio Copy V0.99 prebeta 4 from 23. January 2008

EAC extraction logfile from 18. January 2009, 21:17

Brian Eno / I: Instrumental Box (Disc 1)

Used drive : PLEXTOR DVDR PX-708A Adapter: 2 ID: 1

Read mode : Secure
Utilize accurate stream : Yes
Defeat audio cache : Yes
Make use of C2 pointers : No

Read offset correction : 30
Overread into Lead-In and Lead-Out : No
Fill up missing offset samples with silence : Yes
Delete leading and trailing silent blocks : No
Null samples used in CRC calculations : Yes
Used interface : Installed external ASPI interface
Gap handling : Appended to previous track

Used output format : User Defined Encoder
Selected bitrate : 96 kBit/s
Quality : High
Add ID3 tag : No
Command line compressor : C:\Program Files\FLAC\flac.exe
Additional command line options : –verify -T "artist=%a" -T "title=%t" -T "album=%g" -T "date=%y" -T "tracknumber=%n" -T "genre=%m" -8 %s


TOC of the extracted CD

Track | Start | Length | Start sector | End sector
––––––––––––––––––––––––––––-
1 | 0:00.05 | 1:40.45 | 5 | 7549
2 | 1:40.50 | 2:07.55 | 7550 | 17129
3 | 3:48.30 | 4:37.35 | 17130 | 37939
4 | 8:25.65 | 3:18.62 | 37940 | 52851
5 | 11:44.52 | 2:05.63 | 52852 | 62289
6 | 13:50.40 | 1:58.12 | 62290 | 71151
7 | 15:48.52 | 1:25.50 | 71152 | 77576
8 | 17:14.27 | 1:40.55 | 77577 | 85131
9 | 18:55.07 | 1:13.25 | 85132 | 90631
10 | 20:08.32 | 0:59.70 | 90632 | 95126
11 | 21:08.27 | 1:29.35 | 95127 | 101836
12 | 22:37.62 | 3:26.23 | 101837 | 117309
13 | 26:04.10 | 1:11.35 | 117310 | 122669
14 | 27:15.45 | 1:44.10 | 122670 | 130479
15 | 28:59.55 | 1:24.02 | 130480 | 136781
16 | 30:23.57 | 3:43.45 | 136782 | 153551
17 | 34:07.27 | 1:44.03 | 153552 | 161354
18 | 35:51.30 | 1:43.07 | 161355 | 169086
19 | 37:34.37 | 1:03.68 | 169087 | 173879
20 | 38:38.30 | 1:22.32 | 173880 | 180061
21 | 40:00.62 | 2:50.48 | 180062 | 192859
22 | 42:51.35 | 4:11.50 | 192860 | 211734
23 | 47:03.10 | 1:26.05 | 211735 | 218189
24 | 48:29.15 | 3:38.72 | 218190 | 234611
25 | 52:08.12 | 3:13.60 | 234612 | 249146
26 | 55:21.72 | 4:36.73 | 249147 | 269919
27 | 59:58.70 | 3:59.32 | 269920 | 287876
28 | 63:58.27 | 2:31.38 | 287877 | 299239
29 | 66:29.65 | 3:26.57 | 299240 | 314746
30 | 69:56.47 | 3:09.35 | 314747 | 328956
31 | 73:06.07 | 4:22.33 | 328957 | 348639


Track 1

Filename C:\Brian Eno - I- Instrumental Box (Disc 1) (1993)\01 - Another Green World.wav

Pre-gap length 0:00:02.05

Peak level 67.0 %
Track quality 99.8 %
Test CRC EDBCEF82
Copy CRC EDBCEF82
Accurately ripped (confidence 8) [ED859961]
Copy OK

Track 2

Filename C:\Brian Eno - I- Instrumental Box (Disc 1) (1993)\02 - Energy Fools the Magician.wav

Peak level 95.9 %
Track quality 100.0 %
Test CRC 2B1FE4C3
Copy CRC 2B1FE4C3
Accurately ripped (confidence 8) [E15C6B47]
Copy OK

Track 3

Filename C:\Brian Eno - I- Instrumental Box (Disc 1) (1993)\03 - Dover Beach.wav

Peak level 65.7 %
Track quality 100.0 %
Test CRC C6027027
Copy CRC C6027027
Accurately ripped (confidence 8) [828F0767]
Copy OK

Track 4

Filename C:\Brian Eno - I- Instrumental Box (Disc 1) (1993)\04 - Slow Water.wav

Pre-gap length 0:00:00.08

Peak level 53.7 %
Track quality 100.0 %
Test CRC D4A59CED
Copy CRC D4A59CED
Accurately ripped (confidence 8) [0E95777E]
Copy OK

Track 5

Filename C:\Brian Eno - I- Instrumental Box (Disc 1) (1993)\05 - Untitled.wav

Pre-gap length 0:00:00.07

Peak level 75.2 %
Track quality 99.9 %
Test CRC 88518305
Copy CRC 88518305
Accurately ripped (confidence 8) [5773524E]
Copy OK

Track 6

Filename C:\Brian Eno - I- Instrumental Box (Disc 1) (1993)\06 - Chemin de Fer.wav

Pre-gap length 0:00:00.03

Peak level 76.8 %
Track quality 100.0 %
Test CRC 7AB2552E
Copy CRC 7AB2552E
Accurately ripped (confidence 8) [7F153C01]
Copy OK

Track 7

Filename C:\Brian Eno - I- Instrumental Box (Disc 1) (1993)\07 - Empty Landscape.wav

Pre-gap length 0:00:00.02

Peak level 37.2 %
Track quality 99.8 %
Test CRC E20D9DA0
Copy CRC E20D9DA0
Accurately ripped (confidence 8) [BFBCABF5]
Copy OK

Track 8

Filename C:\Brian Eno - I- Instrumental Box (Disc 1) (1993)\08 - Reactor.wav

Peak level 66.8 %
Track quality 100.0 %
Test CRC 0CBF3DC7
Copy CRC 0CBF3DC7
Accurately ripped (confidence 8) [B080C36F]
Copy OK

Track 9

Filename C:\Brian Eno - I- Instrumental Box (Disc 1) (1993)\09 - The Secret.wav

Peak level 57.2 %
Track quality 100.0 %
Test CRC 2C32A5BF
Copy CRC 2C32A5BF
Accurately ripped (confidence 8) [7848BD5C]
Copy OK

Track 10

Filename C:\Brian Eno - I- Instrumental Box (Disc 1) (1993)\10 - Don't Look Back.wav

Peak level 73.2 %
Track quality 100.0 %
Test CRC 7E55F0A5
Copy CRC 7E55F0A5
Accurately ripped (confidence 8) [C57FD650]
Copy OK

Track 11

Filename C:\Brian Eno - I- Instrumental Box (Disc 1) (1993)\11 - Marseilles.wav

Peak level 74.3 %
Track quality 100.0 %
Test CRC 19B73118
Copy CRC 19B73118
Accurately ripped (confidence 8) [D39EA3E0]
Copy OK

Track 12

Filename C:\Brian Eno - I- Instrumental Box (Disc 1) (1993)\12 - Two Rapid Formations.wav

Peak level 67.2 %
Track quality 100.0 %
Test CRC D0DBAD26
Copy CRC D0DBAD26
Accurately ripped (confidence 8) [CCC33570]
Copy OK

Track 13

Filename C:\Brian Eno - I- Instrumental Box (Disc 1) (1993)\13 - Sparrowfall I.wav

Pre-gap length 0:00:01.48

Peak level 49.3 %
Track quality 100.0 %
Test CRC A61DBDB7
Copy CRC A61DBDB7
Accurately ripped (confidence 8) [060F2D30]
Copy OK

Track 14

Filename C:\Brian Eno - I- Instrumental Box (Disc 1) (1993)\14 - Sparrowfall II.wav

Peak level 44.8 %
Track quality 100.0 %
Test CRC 843671F4
Copy CRC 843671F4
Accurately ripped (confidence 8) [143E5CBF]
Copy OK

Track 15

Filename C:\Brian Eno - I- Instrumental Box (Disc 1) (1993)\15 - Sparrowfall III.wav

Peak level 67.2 %
Track quality 99.8 %
Test CRC BEBAD783
Copy CRC BEBAD783
Accurately ripped (confidence 8) [9396D35E]
Copy OK

Track 16

Filename C:\Brian Eno - I- Instrumental Box (Disc 1) (1993)\16 - Events in Dense Fog.wav

Pre-gap length 0:00:00.05

Peak level 40.6 %
Track quality 100.0 %
Test CRC B3F4E47F
Copy CRC B3F4E47F
Accurately ripped (confidence 8) [5F5D9564]
Copy OK

Track 17

Filename C:\Brian Eno - I- Instrumental Box (Disc 1) (1993)\17 - 'There Is Nobody'.wav

Pre-gap length 0:00:00.45

Peak level 62.6 %
Track quality 100.0 %
Test CRC A469FB05
Copy CRC A469FB05
Accurately ripped (confidence 8) [E87411C5]
Copy OK

Track 18

Filename C:\Brian Eno - I- Instrumental Box (Disc 1) (1993)\18 - Patrolling Wire Borders.wav

Pre-gap length 0:00:00.48

Peak level 62.4 %
Track quality 100.0 %
Test CRC 0949898D
Copy CRC 0949898D
Accurately ripped (confidence 8) [4785EEDD]
Copy OK

Track 19

Filename C:\Brian Eno - I- Instrumental Box (Disc 1) (1993)\19 - A Measured Room.wav

Peak level 63.4 %
Track quality 100.0 %
Test CRC 556B9D02
Copy CRC 556B9D02
Accurately ripped (confidence 8) [52FC2509]
Copy OK

Track 20

Filename C:\Brian Eno - I- Instrumental Box (Disc 1) (1993)\20 - Task Force.wav

Peak level 52.7 %
Track quality 100.0 %
Test CRC 145848F4
Copy CRC 145848F4
Accurately ripped (confidence 8) [02377B19]
Copy OK

Track 21

Filename C:\Brian Eno - I- Instrumental Box (Disc 1) (1993)\21 - M386.wav

Pre-gap length 0:00:00.05

Peak level 66.3 %
Track quality 100.0 %
Test CRC 0DF664F0
Copy CRC 0DF664F0
Accurately ripped (confidence 8) [F1899FA9]
Copy OK

Track 22

Filename C:\Brian Eno - I- Instrumental Box (Disc 1) (1993)\22 - Final Sunset.wav

Pre-gap length 0:00:00.03

Peak level 57.4 %
Track quality 99.9 %
Test CRC CCEC97FD
Copy CRC CCEC97FD
Accurately ripped (confidence 8) [813F2C97]
Copy OK

Track 23

Filename C:\Brian Eno - I- Instrumental Box (Disc 1) (1993)\23 - The Dove.wav

Pre-gap length 0:00:00.03

Peak level 36.8 %
Track quality 100.0 %
Test CRC C548C98E
Copy CRC C548C98E
Accurately ripped (confidence 8) [79827DB5]
Copy OK

Track 24

Filename C:\Brian Eno - I- Instrumental Box (Disc 1) (1993)\24 - Roman Twilight.wav

Peak level 47.1 %
Track quality 100.0 %
Test CRC 106023BA
Copy CRC 106023BA
Accurately ripped (confidence 8) [CF74D4A7]
Copy OK

Track 25

Filename C:\Brian Eno - I- Instrumental Box (Disc 1) (1993)\25 - Dawn, Marshland.wav

Pre-gap length 0:00:00.12

Peak level 35.2 %
Track quality 100.0 %
Test CRC 6D2F114C
Copy CRC 6D2F114C
Accurately ripped (confidence 8) [A31C1BEF]
Copy OK

Track 26

Filename C:\Brian Eno - I- Instrumental Box (Disc 1) (1993)\26 - Always Returning I.wav

Pre-gap length 0:00:00.65

Peak level 67.3 %
Track quality 100.0 %
Test CRC 2D200A10
Copy CRC 2D200A10
Accurately ripped (confidence 8) [56ED9792]
Copy OK

Track 27

Filename C:\Brian Eno - I- Instrumental Box (Disc 1) (1993)\27 - Signals.wav

Pre-gap length 0:00:04.25

Peak level 30.5 %
Track quality 99.9 %
Test CRC 47DFCDF9
Copy CRC 47DFCDF9
Accurately ripped (confidence 8) [ACAC2BC7]
Copy OK

Track 28

Filename C:\Brian Eno - I- Instrumental Box (Disc 1) (1993)\28 - Drift Study.wav

Pre-gap length 0:00:02.17

Peak level 51.9 %
Track quality 100.0 %
Test CRC D231EE9B
Copy CRC D231EE9B
Accurately ripped (confidence 8) [EDA03EFD]
Copy OK

Track 29

Filename C:\Brian Eno - I- Instrumental Box (Disc 1) (1993)\29 - Approaching Taidu.wav

Pre-gap length 0:00:00.35

Peak level 39.1 %
Track quality 100.0 %
Test CRC 179F3A17
Copy CRC 179F3A17
Accurately ripped (confidence 8) [503C9807]
Copy OK

Track 30

Filename C:\Brian Eno - I- Instrumental Box (Disc 1) (1993)\30 - Always Returning II.wav

Pre-gap length 0:00:02.02

Peak level 54.0 %
Track quality 100.0 %
Test CRC 3129AD33
Copy CRC 3129AD33
Accurately ripped (confidence 8) [5142C26F]
Copy OK

Track 31

Filename C:\Brian Eno - I- Instrumental Box (Disc 1) (1993)\31 - Asian River.wav

Pre-gap length 0:00:01.72

Peak level 83.8 %
Track quality 100.0 %
Test CRC C31972F5
Copy CRC C31972F5
Accurately ripped (confidence 8) [537F43A5]
Copy OK


All tracks accurately ripped

No errors occurred

End of status report

foobar2000 1.2 / Dynamic Range Meter 1.1.1
log date: 2016-04-23 18:00:49

––––––––––––––––––––––––––––––––––––––––
Analyzed: Brian Eno / I: Instrumental Box
––––––––––––––––––––––––––––––––––––––––

DR Peak RMS Duration Track
––––––––––––––––––––––––––––––––––––––––
DR10 -3.47 dB -19.02 dB 1:41 01-Another Green World
DR15 -0.36 dB -18.70 dB 2:08 02-Energy Fools the Magician
DR10 -3.64 dB -18.87 dB 4:37 03-Dover Beach
DR10 -5.39 dB -18.88 dB 3:19 04-Slow Water
DR13 -2.47 dB -19.24 dB 2:06 05-Untitled
DR14 -2.28 dB -20.20 dB 1:58 06-Chemin de Fer
DR8 -8.58 dB -21.26 dB 1:26 07-Empty Landscape
DR10 -3.50 dB -16.97 dB 1:41 08-Reactor
DR11 -4.84 dB -19.09 dB 1:13 09-The Secret
DR11 -2.71 dB -17.48 dB 1:00 10-Don't Look Back
DR11 -2.57 dB -16.57 dB 1:29 11-Marseilles
DR12 -3.44 dB -20.47 dB 3:26 12-Two Rapid Formations
DR10 -6.14 dB -18.60 dB 1:11 13-Sparrowfall I
DR11 -6.96 dB -21.39 dB 1:44 14-Sparrowfall II
DR10 -3.45 dB -16.39 dB 1:24 15-Sparrowfall III
DR11 -7.83 dB -24.55 dB 3:44 16-Events in Dense Fog
DR10 -4.07 dB -18.19 dB 1:44 17-'There Is Nobody'
DR12 -4.08 dB -20.21 dB 1:43 18-Patrolling Wire Borders
DR10 -3.95 dB -17.10 dB 1:04 19-A Measured Room
DR14 -5.56 dB -25.09 dB 1:22 20-Task Force
DR11 -3.57 dB -18.73 dB 2:51 21-M386
DR11 -4.82 dB -21.76 dB 4:12 22-Final Sunset
DR10 -8.67 dB -26.05 dB 1:26 23-The Dove
DR11 -6.53 dB -21.24 dB 3:39 24-Roman Twilight
DR10 -9.06 dB -24.97 dB 3:14 25-Dawn, Marshland
DR12 -3.43 dB -18.26 dB 4:37 26-Always Returning I
DR9 -10.30 dB -22.75 dB 3:59 27-Signals
DR12 -5.69 dB -22.60 dB 2:32 28-Drift Study
DR11 -8.15 dB -22.09 dB 3:27 29-Approaching Taidu
DR13 -5.34 dB -22.14 dB 3:09 30-Always Returning II
DR11 -1.53 dB -18.49 dB 4:22 31-Asian River
––––––––––––––––––––––––––––––––––––––––

Number of tracks: 31
Official DR value: DR11

Samplerate: 44100 Hz
Channels: 2
Bits per sample: 16
Bitrate: 563 kbps
Codec: FLAC
================================================================================


Exact Audio Copy V0.99 prebeta 4 from 23. January 2008

EAC extraction logfile from 18. January 2009, 21:46

Brian Eno / I: Instrumental Box (Disc 2)

Used drive : PLEXTOR DVDR PX-708A Adapter: 2 ID: 1

Read mode : Secure
Utilize accurate stream : Yes
Defeat audio cache : Yes
Make use of C2 pointers : No

Read offset correction : 30
Overread into Lead-In and Lead-Out : No
Fill up missing offset samples with silence : Yes
Delete leading and trailing silent blocks : No
Null samples used in CRC calculations : Yes
Used interface : Installed external ASPI interface
Gap handling : Appended to previous track

Used output format : User Defined Encoder
Selected bitrate : 96 kBit/s
Quality : High
Add ID3 tag : No
Command line compressor : C:\Program Files\FLAC\flac.exe
Additional command line options : –verify -T "artist=%a" -T "title=%t" -T "album=%g" -T "date=%y" -T "tracknumber=%n" -T "genre=%m" -8 %s


TOC of the extracted CD

Track | Start | Length | Start sector | End sector
––––––––––––––––––––––––––––-
1 | 0:00.00 | 3:07.62 | 0 | 14086
2 | 3:07.62 | 3:36.60 | 14087 | 30346
3 | 6:44.47 | 6:21.28 | 30347 | 58949
4 | 13:06.00 | 6:53.27 | 58950 | 89951
5 | 19:59.27 | 3:39.10 | 89952 | 106386
6 | 23:38.37 | 5:19.63 | 106387 | 130374
7 | 28:58.25 | 3:14.52 | 130375 | 144976
8 | 32:13.02 | 3:07.48 | 144977 | 159049
9 | 35:20.50 | 2:50.27 | 159050 | 171826
10 | 38:11.02 | 3:35.35 | 171827 | 187986
11 | 41:46.37 | 5:07.13 | 187987 | 211024
12 | 46:53.50 | 3:54.22 | 211025 | 228596
13 | 50:47.72 | 2:31.68 | 228597 | 239989
14 | 53:19.65 | 6:22.72 | 239990 | 268711
15 | 59:42.62 | 7:56.50 | 268712 | 304461
16 | 67:39.37 | 7:13.23 | 304462 | 336959


Track 1

Filename C:\Brian Eno - I- Instrumental Box (Disc 2) (1993)\01 - Theme From Creation.wav

Pre-gap length 0:00:02.00

Peak level 66.6 %
Track quality 100.0 %
Test CRC 69B91352
Copy CRC 69B91352
Accurately ripped (confidence 9) [056537A8]
Copy OK

Track 2

Filename C:\Brian Eno - I- Instrumental Box (Disc 2) (1993)\02 - Saint Tom.wav

Pre-gap length 0:00:01.47

Peak level 62.8 %
Track quality 99.9 %
Test CRC 44E7D892
Copy CRC 44E7D892
Accurately ripped (confidence 9) [B6ED1EA2]
Copy OK

Track 3

Filename C:\Brian Eno - I- Instrumental Box (Disc 2) (1993)\03 - Warszawa.wav

Pre-gap length 0:00:01.57

Peak level 94.6 %
Track quality 100.0 %
Test CRC 948A5BCF
Copy CRC 948A5BCF
Accurately ripped (confidence 9) [FA1E88AD]
Copy OK

Track 4

Filename C:\Brian Eno - I- Instrumental Box (Disc 2) (1993)\04 - Chemistry.wav

Pre-gap length 0:00:01.20

Peak level 86.2 %
Track quality 100.0 %
Test CRC 9A43824D
Copy CRC 9A43824D
Accurately ripped (confidence 9) [1E8C38E9]
Copy OK

Track 5

Filename C:\Brian Eno - I- Instrumental Box (Disc 2) (1993)\05 - Courage.wav

Pre-gap length 0:00:00.02

Peak level 86.1 %
Track quality 99.9 %
Test CRC E5197ED8
Copy CRC E5197ED8
Accurately ripped (confidence 9) [EEA82821]
Copy OK

Track 6

Filename C:\Brian Eno - I- Instrumental Box (Disc 2) (1993)\06 - Moss Garden.wav

Pre-gap length 0:00:00.05

Peak level 71.3 %
Track quality 100.0 %
Test CRC 83CA1F7B
Copy CRC 83CA1F7B
Accurately ripped (confidence 9) [51E2866F]
Copy OK

Track 7

Filename C:\Brian Eno - I- Instrumental Box (Disc 2) (1993)\07 - Tension Block.wav

Peak level 81.2 %
Track quality 100.0 %
Test CRC 583B0392
Copy CRC 583B0392
Accurately ripped (confidence 9) [05B263EA]
Copy OK

Track 8

Filename C:\Brian Eno - I- Instrumental Box (Disc 2) (1993)\08 - Strong Flashes Of Light.wav

Pre-gap length 0:00:01.10

Peak level 76.1 %
Track quality 99.9 %
Test CRC 2A613129
Copy CRC 2A613129
Accurately ripped (confidence 9) [4B18F256]
Copy OK

Track 9

Filename C:\Brian Eno - I- Instrumental Box (Disc 2) (1993)\09 - More Volts.wav

Pre-gap length 0:00:00.68

Peak level 73.5 %
Track quality 99.9 %
Test CRC 26BE5739
Copy CRC 26BE5739
Accurately ripped (confidence 9) [B8F646D7]
Copy OK

Track 10

Filename C:\Brian Eno - I- Instrumental Box (Disc 2) (1993)\10 - Mist , Rhythm.wav

Pre-gap length 0:00:00.22

Peak level 62.0 %
Track quality 100.0 %
Test CRC 69C4A344
Copy CRC 69C4A344
Accurately ripped (confidence 9) [F42D5131]
Copy OK

Track 11

Filename C:\Brian Eno - I- Instrumental Box (Disc 2) (1993)\11 - Ho Renomo.wav

Pre-gap length 0:00:00.42

Peak level 71.0 %
Track quality 99.9 %
Test CRC 57D2A113
Copy CRC 57D2A113
Accurately ripped (confidence 9) [9C0840C2]
Copy OK

Track 12

Filename C:\Brian Eno - I- Instrumental Box (Disc 2) (1993)\12 - A Stream With Bright Fish.wav

Peak level 86.4 %
Track quality 100.0 %
Test CRC 796C3FDB
Copy CRC 796C3FDB
Accurately ripped (confidence 9) [71A4CD67]
Copy OK

Track 13

Filename C:\Brian Eno - I- Instrumental Box (Disc 2) (1993)\13 - Fleeting Smile.wav

Pre-gap length 0:00:00.05

Peak level 61.9 %
Track quality 100.0 %
Test CRC 35A66140
Copy CRC 35A66140
Accurately ripped (confidence 9) [7E35DD8C]
Copy OK

Track 14

Filename C:\Brian Eno - I- Instrumental Box (Disc 2) (1993)\14 - An Arc Of Doves.wav

Pre-gap length 0:00:01.10

Peak level 58.6 %
Track quality 100.0 %
Test CRC 2A84DD05
Copy CRC 2A84DD05
Accurately ripped (confidence 9) [E34B1303]
Copy OK

Track 15

Filename C:\Brian Eno - I- Instrumental Box (Disc 2) (1993)\15 - Stars.wav

Peak level 56.2 %
Track quality 100.0 %
Test CRC 577231C7
Copy CRC 577231C7
Accurately ripped (confidence 9) [45209009]
Copy OK

Track 16

Filename C:\Brian Eno - I- Instrumental Box (Disc 2) (1993)\16 - An Index Of Metals (Edit).wav

Pre-gap length 0:00:00.10

Peak level 77.6 %
Track quality 100.0 %
Test CRC 9A6C76E3
Copy CRC 9A6C76E3
Accurately ripped (confidence 9) [216A19DD]
Copy OK


All tracks accurately ripped

No errors occurred

End of status report

foobar2000 1.2 / Dynamic Range Meter 1.1.1
log date: 2016-04-23 15:17:58

––––––––––––––––––––––––––––––––––––––––
Analyzed: Brian Eno / I: Instrumental Box
––––––––––––––––––––––––––––––––––––––––

DR Peak RMS Duration Track
––––––––––––––––––––––––––––––––––––––––
DR10 -3.52 dB -16.42 dB 3:08 01-Theme From Creation
DR11 -4.04 dB -17.81 dB 3:37 02-Saint Tom
DR10 -0.48 dB -15.11 dB 6:21 03-Warszawa
DR15 -1.29 dB -19.80 dB 6:53 04-Chemistry
DR16 -1.29 dB -20.85 dB 3:39 05-Courage
DR10 -2.94 dB -17.17 dB 5:20 06-Moss Garden
DR11 -1.81 dB -15.82 dB 3:15 07-Tension Block
DR11 -2.37 dB -15.02 dB 3:08 08-Strong Flashes Of Light
DR15 -2.67 dB -19.57 dB 2:50 09-More Volts
DR16 -4.14 dB -22.38 dB 3:35 10-Mist / Rhythm
DR11 -2.96 dB -16.51 dB 5:07 11-Ho Renomo
DR13 -1.27 dB -18.63 dB 3:54 12-A Stream With Bright Fish
DR15 -4.16 dB -24.14 dB 2:32 13-Fleeting Smile
DR12 -4.63 dB -20.89 dB 6:23 14-An Arc Of Doves
DR12 -5.00 dB -18.53 dB 7:57 15-Stars
DR9 -2.19 dB -16.65 dB 7:13 16-An Index Of Metals (Edit)
––––––––––––––––––––––––––––––––––––––––

Number of tracks: 16
Official DR value: DR12

Samplerate: 44100 Hz
Channels: 2
Bits per sample: 16
Bitrate: 587 kbps
Codec: FLAC
================================================================================


Exact Audio Copy V0.99 prebeta 4 from 23. January 2008

EAC extraction logfile from 18. January 2009, 22:08

Brian Eno / I: Instrumental Box (Disc 3)

Used drive : PLEXTOR DVDR PX-708A Adapter: 2 ID: 1

Read mode : Secure
Utilize accurate stream : Yes
Defeat audio cache : Yes
Make use of C2 pointers : No

Read offset correction : 30
Overread into Lead-In and Lead-Out : No
Fill up missing offset samples with silence : Yes
Delete leading and trailing silent blocks : No
Null samples used in CRC calculations : Yes
Used interface : Installed external ASPI interface
Gap handling : Appended to previous track

Used output format : User Defined Encoder
Selected bitrate : 96 kBit/s
Quality : High
Add ID3 tag : No
Command line compressor : C:\Program Files\FLAC\flac.exe
Additional command line options : –verify -T "artist=%a" -T "title=%t" -T "album=%g" -T "date=%y" -T "tracknumber=%n" -T "genre=%m" -8 %s


TOC of the extracted CD

Track | Start | Length | Start sector | End sector
––––––––––––––––––––––––––––-
1 | 0:00.00 | 16:36.02 | 0 | 74701
2 | 16:36.02 | 7:19.20 | 74702 | 107646
3 | 23:55.22 | 9:14.20 | 107647 | 149216
4 | 33:09.42 | 11:50.60 | 149217 | 202526
5 | 45:00.27 | 15:01.48 | 202527 | 270149
6 | 60:02.00 | 7:09.05 | 270150 | 302329
7 | 67:11.05 | 9:41.35 | 302330 | 345939


Track 1

Filename C:\Brian Eno - I- Instrumental Box (Disc 3) (1993)\01 - 1,1.wav

Pre-gap length 0:00:02.00

Peak level 56.6 %
Track quality 100.0 %
Test CRC 4D42A049
Copy CRC 4D42A049
Accurately ripped (confidence 7) [B9510D4C]
Copy OK

Track 2

Filename C:\Brian Eno - I- Instrumental Box (Disc 3) (1993)\02 - Ikebukuro (Edit).wav

Pre-gap length 0:00:01.15

Peak level 57.6 %
Track quality 100.0 %
Test CRC 36920E7F
Copy CRC 36920E7F
Accurately ripped (confidence 8) [1CBA6725]
Copy OK

Track 3

Filename C:\Brian Eno - I- Instrumental Box (Disc 3) (1993)\03 - The Lost Day.wav

Pre-gap length 0:00:01.25

Peak level 39.2 %
Track quality 100.0 %
Test CRC 438C8CB8
Copy CRC 438C8CB8
Accurately ripped (confidence 8) [EC5B4653]
Copy OK

Track 4

Filename C:\Brian Eno - I- Instrumental Box (Disc 3) (1993)\04 - Thursday Afternoon (Edit).wav

Peak level 45.8 %
Track quality 100.0 %
Test CRC 032BE88F
Copy CRC 032BE88F
Accurately ripped (confidence 8) [69FBE5AB]
Copy OK

Track 5

Filename C:\Brian Eno - I- Instrumental Box (Disc 3) (1993)\05 - Discreet Music (Edit).wav

Peak level 46.8 %
Track quality 100.0 %
Test CRC B0385B79
Copy CRC B0385B79
Accurately ripped (confidence 8) [4DAED2F8]
Copy OK

Track 6

Filename C:\Brian Eno - I- Instrumental Box (Disc 3) (1993)\06 - Dunwich Beach, Autumn 1960.wav

Pre-gap length 0:00:00.13

Peak level 29.8 %
Track quality 100.0 %
Test CRC 2F113A37
Copy CRC 2F113A37
Accurately ripped (confidence 8) [A12D383D]
Copy OK

Track 7

Filename C:\Brian Eno - I- Instrumental Box (Disc 3) (1993)\07 - Neroli (Edit).wav

Peak level 20.9 %
Track quality 99.9 %
Test CRC 69B499BA
Copy CRC 69B499BA
Accurately ripped (confidence 8) [0E18ADE1]
Copy OK


All tracks accurately ripped

No errors occurred

End of status report

foobar2000 1.2 / Dynamic Range Meter 1.1.1
log date: 2016-04-23 18:01:09

––––––––––––––––––––––––––––––––––––––––
Analyzed: Brian Eno / I: Instrumental Box
––––––––––––––––––––––––––––––––––––––––

DR Peak RMS Duration Track
––––––––––––––––––––––––––––––––––––––––
DR12 -4.93 dB -22.01 dB 16:36 01-1/1
DR11 -4.78 dB -22.98 dB 7:19 02-Ikebukuro (Edit)
DR10 -8.12 dB -21.41 dB 9:14 03-The Lost Day
DR15 -6.76 dB -25.40 dB 11:51 04-Thursday Afternoon (Edit)
DR12 -6.59 dB -24.09 dB 15:02 05-Discreet Music (Edit)
DR12 -10.49 dB -26.98 dB 7:09 06-Dunwich Beach, Autumn 1960
DR13 -13.59 dB -31.38 dB 9:41 07-Neroli (Edit)
––––––––––––––––––––––––––––––––––––––––

Number of tracks: 7
Official DR value: DR12

Samplerate: 44100 Hz
Channels: 2
Bits per sample: 16
Bitrate: 356 kbps
Codec: FLAC
================================================================================

Brian Eno - Eno Box I: Instrumental (1993) 3 CD Box Set [Re-Up]

Brian Eno - Eno Box I: Instrumental (1993) 3 CD Box Set [Re-Up]