Subcategories

Brand X - Do They Hurt? (1980) [2014, Universal Music Japan, UICY-76417]

Posted By: v3122
Brand X - Do They Hurt? (1980) [2014, Universal Music Japan, UICY-76417]

Brand X - Do They Hurt? (1980)
EAC | Flac(Image) + Cue + Log & MP3 CBR 320Kbps
Universal Music Japan, UICY-76417 | ~ 256 or 107 Mb | Scans(png) -> 149 Mb
Jazz Fusion / Jazz Rock / Art Rock

Conventional very good fusion. Even funny. Compared to "Unorthodox Behaviour" and "Moroccan Roll", the compositions here are a bit more diluted: the tracks are less loaded, although there are bits where the bass and drums are complex and fast. The rythmic electric guitar is slightly razor. There are less solos than on the previous albums. The keyboards have the typical modern fusion sound. Phil COLLINS, on drums, is very good but his '76 peak is passed, so he took it easier here.

by greenback, progarchives
Brand X - Do They Hurt? (1980):

Brand X - Do They Hurt? (1980) [2014, Universal Music Japan, UICY-76417]

Tracklist:

01. Noddy Goes To Sweden 04:30
02. Voidarama 04:26
03. Act Of Will 04:45
04. Fragile 05:27
05. Cambodia 04:34
06. Triumphant Limp 07:32
07. D.M.Z. 08:39

Exact Audio Copy V1.0 beta 3 from 29. August 2011

EAC extraction logfile from 19. October 2014, 10:43

Brand X / Do They Hurt? SHM-CD

Used drive : PLEXTOR BD-R PX-B950SA Adapter: 6 ID: 0

Read mode : Secure
Utilize accurate stream : Yes
Defeat audio cache : Yes
Make use of C2 pointers : No

Read offset correction : 6
Overread into Lead-In and Lead-Out : No
Fill up missing offset samples with silence : Yes
Delete leading and trailing silent blocks : No
Null samples used in CRC calculations : Yes
Used interface : Native Win32 interface for Win NT & 2000

Used output format : Internal WAV Routines
Sample format : 44.100 Hz; 16 Bit; Stereo


TOC of the extracted CD

Track | Start | Length | Start sector | End sector
––––––––––––––––––––––––––––-
1 | 0:00.00 | 4:30.21 | 0 | 20270
2 | 4:30.21 | 4:26.64 | 20271 | 40284
3 | 8:57.10 | 4:45.17 | 40285 | 61676
4 | 13:42.27 | 5:27.61 | 61677 | 86262
5 | 19:10.13 | 4:34.00 | 86263 | 106812
6 | 23:44.13 | 7:32.21 | 106813 | 140733
7 | 31:16.34 | 8:39.62 | 140734 | 179720


Range status and errors

Selected range

Filename C:\Users\Meijin\Desktop\ALLexxess\Brand X\1980 Do They Hurt (Mini LP SHM-CD Universal Japan 2014)\Brand X - Do They Hurt SHM-CD.wav

Peak level 100.0 %
Extraction speed 6.8 X
Range quality 100.0 %
Test CRC FAAF8BCF
Copy CRC FAAF8BCF
Copy OK

No errors occurred


AccurateRip summary

Track 1 not present in database
Track 2 not present in database
Track 3 not present in database
Track 4 not present in database
Track 5 not present in database
Track 6 not present in database
Track 7 not present in database

None of the tracks are present in the AccurateRip database

End of status report

foobar2000 1.2.9 / Dynamic Range Meter 1.1.1
log date: 2014-11-01 00:19:28

––––––––––––––––––––––––––––––––––––––––
Analyzed: Brand X / Do They Hurt? SHM-CD
––––––––––––––––––––––––––––––––––––––––

DR Peak RMS Duration Track
––––––––––––––––––––––––––––––––––––––––
DR12 0.00 dB -14.86 dB 4:30 01-Noddy Goes To Sweden
DR11 0.00 dB -13.69 dB 4:27 02-Voidarama
DR12 0.00 dB -14.28 dB 4:45 03-Act Of Will
DR13 0.00 dB -15.59 dB 5:28 04-Fragile
DR9 0.00 dB -11.41 dB 4:34 05-Cambodia
DR13 0.00 dB -17.02 dB 7:32 06-Triumphant Limp
DR11 0.00 dB -13.98 dB 8:40 07-D.M.Z.
––––––––––––––––––––––––––––––––––––––––

Number of tracks: 7
Official DR value: DR11

Samplerate: 44100 Hz
Channels: 2
Bits per sample: 16
Bitrate: 823 kbps
Codec: FLAC

[CUETools log; Date: 01.11.2014 0:20:22; Version: 2.1.4]
[CTDB TOCID: k.fE9Kc_aqJ7IAyYNkZwuIQvf5M-] disk not present in database.
[AccurateRip ID: 0009b374-003b8ee5-5a095c07] disk not present in database.

Track Peak [ CRC32 ] [W/O NULL] [ LOG ]
– 100,0 [FAAF8BCF] [FC39C6F1] CRC32
01 100,0 [74DA9E08] [3BCFF0DD]
02 100,0 [408B4069] [520B4AB4]
03 100,0 [4209E8AB] [7FC71398]
04 100,0 [28BA33B8] [DBE74CCE]
05 100,0 [3C824354] [15C85236]
06 100,0 [5EC2AE06] [23919F27]
07 100,0 [C1C6B7B9] [6B7A8BBD]

Brand X - Do They Hurt? (1980) [2014, Universal Music Japan, UICY-76417]

All thanks go to ALLexxess