Subcategories

Bohannon - It's Time To Jam (1990) {CDSEW 033}

Posted By: tiburon
Bohannon - It's Time To Jam (1990) {CDSEW 033}

Bohannon - It's Time To Jam (1990) {CDSEW 033}
EAC 1.3 | FLAC tracks level 8 | Cue+Log+M3U | Full Scans 300dpi | 318MB + 5% Recovery
MP3 CBR 320 Kbps | 99MB + 5% Recovery
Genre: Funk, Soul

Great collection of some of Bohannon's many club hits, including several different mixes of the smash hit "Let's Start The Dance".
Track List
1. Let's Start II Dance Again (06:50)
2. Foot Stompin' Music (05:30)
3. Throw Down The Groove (Instrumental) (03:34)
4. Let's Start The Dance (Remix) (08:00)
5. Rock And Groove Your Soul (08:40)
6. Throw Down The Groove (Vocal) (04:30)
7. Dance Fever (08:42)

musicians
Drums, Percussion, Vocals – Hamilton Bohannon
Bass – Fernando Saunders, Ted Waterhouse
Guitar – Leroy Emmanuel, Ricardo Rouse
Keyboards – Mose Davis, Rod Lumpkin
Percussion – Lorenzo Brown
Vocals – Carolyn Crawford

Produced by Hamilton Bohannon


Exact Audio Copy V1.0 beta 4 from 7. December 2014

EAC extraction logfile from 7. November 2018, 2:07

Bohannon / It's Time to Jam

Used drive : TSSTcorpDVD+-RW TS-H653B Adapter: 1 ID: 0

Read mode : Secure
Utilize accurate stream : Yes
Defeat audio cache : Yes
Make use of C2 pointers : No

Read offset correction : 6
Overread into Lead-In and Lead-Out : No
Fill up missing offset samples with silence : Yes
Delete leading and trailing silent blocks : No
Null samples used in CRC calculations : Yes
Used interface : Native Win32 interface for Win NT & 2000
Gap handling : Appended to previous track

Used output format : User Defined Encoder
Selected bitrate : 128 kBit/s
Quality : High
Add ID3 tag : No
Command line compressor : C:\Program Files (x86)\Exact Audio Copy\Flac\flac.exe
Additional command line options : -8 -V -T "ARTIST=%artist%" -T "TITLE=%title%" -T "ALBUM=%albumtitle%" -T "DATE=%year%" -T "TRACKNUMBER=%tracknr%" -T "TOTALTRACKS=%numtracks%" -T "GENRE=%genre%" -T "ALBUMARTIST=%albumartist%" -T "ALBUM ARTIST=%albumartist%" -T "COMMENT=EAC Secure Mode, Test & Copy, AccurateRip, FLAC -8" %source%


TOC of the extracted CD

Track | Start | Length | Start sector | End sector
––––––––––––––––––––––––––––-
1 | 0:00.00 | 6:51.35 | 0 | 30859
2 | 6:51.35 | 5:04.05 | 30860 | 53664
3 | 11:55.40 | 3:35.12 | 53665 | 69801
4 | 15:30.52 | 8:01.68 | 69802 | 105944
5 | 23:32.45 | 8:05.47 | 105945 | 142366
6 | 31:38.17 | 4:03.68 | 142367 | 160659
7 | 35:42.10 | 7:42.45 | 160660 | 195354


Track 1

Filename C:\extract\albums\Bohannon - It's Time To Jam (1990) [FLAC] {CDSEW 033}\01 - Let's Start II Dance Again.wav

Pre-gap length 0:00:02.00

Peak level 100.0 %
Extraction speed 1.9 X
Track quality 100.0 %
Test CRC B566E6D4
Copy CRC B566E6D4
Cannot be verified as accurate (confidence 2) [04B1367F], AccurateRip returned [102C2843] (AR v2)
Copy OK

Track 2

Filename C:\extract\albums\Bohannon - It's Time To Jam (1990) [FLAC] {CDSEW 033}\02 - Foot Stompin' Music.wav

Pre-gap length 0:00:01.05

Peak level 100.0 %
Extraction speed 2.1 X
Track quality 100.0 %
Test CRC BD84A832
Copy CRC BD84A832
Cannot be verified as accurate (confidence 2) [6CB818D1], AccurateRip returned [6A3F5A41] (AR v2)
Copy OK

Track 3

Filename C:\extract\albums\Bohannon - It's Time To Jam (1990) [FLAC] {CDSEW 033}\03 - Throw Down the Groove (Instrumental).wav

Pre-gap length 0:00:01.03

Peak level 100.0 %
Extraction speed 2.1 X
Track quality 100.0 %
Test CRC F18786AD
Copy CRC F18786AD
Cannot be verified as accurate (confidence 2) [6CEBFF76], AccurateRip returned [2F9D0404] (AR v2)
Copy OK

Track 4

Filename C:\extract\albums\Bohannon - It's Time To Jam (1990) [FLAC] {CDSEW 033}\04 - Let's Start the Dance (Remix).wav

Pre-gap length 0:00:00.50

Peak level 99.2 %
Extraction speed 2.6 X
Track quality 100.0 %
Test CRC 2C13DE1B
Copy CRC 2C13DE1B
Cannot be verified as accurate (confidence 2) [9D9EC017], AccurateRip returned [2761A812] (AR v2)
Copy OK

Track 5

Filename C:\extract\albums\Bohannon - It's Time To Jam (1990) [FLAC] {CDSEW 033}\05 - Rock and Groove Your Soul.wav

Pre-gap length 0:00:01.33

Peak level 99.7 %
Extraction speed 2.9 X
Track quality 100.0 %
Test CRC 3B5D93FC
Copy CRC 3B5D93FC
Cannot be verified as accurate (confidence 2) [33625BDC], AccurateRip returned [E2617A47] (AR v2)
Copy OK

Track 6

Filename C:\extract\albums\Bohannon - It's Time To Jam (1990) [FLAC] {CDSEW 033}\06 - Throw Down the Groove (Vocal).wav

Pre-gap length 0:00:01.42

Peak level 100.0 %
Extraction speed 2.9 X
Track quality 100.0 %
Test CRC A4156B0F
Copy CRC A4156B0F
Cannot be verified as accurate (confidence 2) [C11C6F28], AccurateRip returned [96D63BCE] (AR v2)
Copy OK

Track 7

Filename C:\extract\albums\Bohannon - It's Time To Jam (1990) [FLAC] {CDSEW 033}\07 - Dance Fever.wav

Pre-gap length 0:00:00.50

Peak level 96.9 %
Extraction speed 3.2 X
Track quality 100.0 %
Test CRC DE7CA155
Copy CRC DE7CA155
Cannot be verified as accurate (confidence 2) [2369754A], AccurateRip returned [2DD8BF65] (AR v2)
Copy OK


No tracks could be verified as accurate
You may have a different pressing from the one(s) in the database

No errors occurred

End of status report

–– CUETools DB Plugin V2.1.4

[CTDB TOCID: EtBt2w36C1IWRKjna4C0KuDlEXE-] found
Submit result: EtBt2w36C1IWRKjna4C0KuDlEXE- has been confirmed
Track | CTDB Status
1 | (3/3) Accurately ripped
2 | (3/3) Accurately ripped
3 | (3/3) Accurately ripped
4 | (3/3) Accurately ripped
5 | (3/3) Accurately ripped
6 | (3/3) Accurately ripped
7 | (3/3) Accurately ripped


==== Log checksum 0E22DD9AF44EE363B114DBBD18977C916DE2AFDDF59F69F2D2A5410391B0DAC8 ====

Bohannon - It's Time To Jam (1990) {CDSEW 033}
Bohannon - It's Time To Jam (1990) {CDSEW 033}


Thanks to the original ripper