Subcategories

Billy Idol - VH1 Storytellers (2001)

Posted By: popsakov
Billy Idol - VH1 Storytellers (2001)

Billy Idol - VH1 Storytellers (2001)
EAC Rip | FLAC (Img) + Cue + Log ~ 524 Mb | MP3 CBR320 ~ 169 Mb
Full Scans ~ 79 Mb | 01:09:54 | RAR 5% Recovery
Pop Rock, Punk, Rockabilly, Classic Rock | Capitol Records #72435-36919-2-9

VH1 Storytellers is a semi-acoustic live album by Billy Idol, recorded at the VH1 Storytellers in 2001 and released in 2002. It was re-released in 2008 as part of the Sight & Sound series which also includes a DVD of the performance, while the CD features a different order of the songs and adds the bonus track "Untouchables".

Billy Idol was still a rock & roll bad boy despite being over the hill by the start of the new millennium. Billy Idol: VH1 Storytellers captures that typical snarl without the bombast and returns to basics. The real rawness behind such classics as "Flesh for Fantasy," "Cradle of Love," and "To Be a Lover" is stripped, and the acoustic mix found on this album showcases Idol's appeal on a different level. The sexiness is still there, and Idol and guitarist Steve Stevens compose a magic as well. Fans should be pleased, for the tantalizing swagger of "Rebel Yell" is ageless. Renditions of Generation X's "Kiss Me Deadly" and "Dancing With Myself" are just as exciting, however it's the intensity of the punk anthem "Ready Steady Go" that brings everything together. While Billy Idol was issuing smash singles during a decade criticized for being unoriginal, Billy Idol: VH1 Storytellers suggests otherwise.

~ MacKenzie Wilson, All Music

***************

Billy Idol - VH1 Storytellers (2001)

Track List:

01. Cradle Of Love [04:33]
02. Don't Need A Gun [06:03]
03. Flesh For Fantasy [06:51]
04. White Wedding [03:48]
05. Sweet Sixteen [05:01]
06. To Be A Lover [03:59]
07. Rebel Yell [05:12]
08. Kiss Me Deadly [05:05]
09. Eyes Without A Face [05:32]
10. Dancing With Myself [04:59]
11. Ready Steady Go [03:14]
12. Blue Highway [05:43]
13. Mony Mony [04:07]
14. L.A. Woman [05:54]

Exact Audio Copy V1.0 beta 3 from 29. August 2011

EAC extraction logfile from 3. May 2016, 13:56

Billy Idol / VH1 Storytellers (Live & Unplugged)

Used drive : PIONEER BD-RW BDR-TD03 Adapter: 0 ID: 1

Read mode : Secure
Utilize accurate stream : Yes
Defeat audio cache : Yes
Make use of C2 pointers : No

Read offset correction : 667
Overread into Lead-In and Lead-Out : No
Fill up missing offset samples with silence : Yes
Delete leading and trailing silent blocks : No
Null samples used in CRC calculations : Yes
Used interface : Native Win32 interface for Win NT & 2000

Used output format : User Defined Encoder
Selected bitrate : 768 kBit/s
Quality : High
Add ID3 tag : No
Command line compressor : C:\Program Files (x86)\Exact Audio Copy\FLAC\FLAC.EXE
Additional command line options : -6 -V -T "ARTIST=%artist%" -T "TITLE=%title%" -T "ALBUM=%albumtitle%" -T "DATE=%year%" -T "TRACKNUMBER=%tracknr%" -T "GENRE=%genre%" -T "COMMENT=%comment%" -T "BAND=%albuminterpret%" -T "ALBUMARTIST=%albuminterpret%" -T "COMPOSER=%composer%" %haslyrics%–tag-from-file=LYRICS="%lyricsfile%"%haslyrics% -T "DISCNUMBER=%cdnumber%" -T "TOTALDISCS=%totalcds%" -T "TOTALTRACKS=%numtracks%" %hascover%–picture="%coverfile%"%hascover% %source% -o %dest%


TOC of the extracted CD

Track | Start | Length | Start sector | End sector
––––––––––––––––––––––––––––-
1 | 0:00.00 | 4:32.25 | 0 | 20424
2 | 4:32.25 | 6:02.50 | 20425 | 47624
3 | 10:35.00 | 6:50.30 | 47625 | 78404
4 | 17:25.30 | 3:47.57 | 78405 | 95486
5 | 21:13.12 | 5:00.48 | 95487 | 118034
6 | 26:13.60 | 3:58.27 | 118035 | 135911
7 | 30:12.12 | 5:11.13 | 135912 | 159249
8 | 35:23.25 | 5:04.12 | 159250 | 182061
9 | 40:27.37 | 5:31.30 | 182062 | 206916
10 | 45:58.67 | 4:58.43 | 206917 | 229309
11 | 50:57.35 | 3:13.15 | 229310 | 243799
12 | 54:10.50 | 5:42.55 | 243800 | 269504
13 | 59:53.30 | 4:06.02 | 269505 | 287956
14 | 63:59.32 | 5:53.45 | 287957 | 314476


Range status and errors

Selected range

Filename C:\Users\Deris\Desktop\…\BilIdostory\Billy Idol - VH1 Storytellers (Live & Unplugged).wav

Peak level 98.8 %
Extraction speed 3.4 X
Range quality 100.0 %
Test CRC 30BDF82F
Copy CRC 30BDF82F
Copy OK

No errors occurred


AccurateRip summary

Track 1 accurately ripped (confidence 23) [EB51E01C] (AR v2)
Track 2 accurately ripped (confidence 23) [37110B58] (AR v2)
Track 3 accurately ripped (confidence 23) [ECF743EC] (AR v2)
Track 4 accurately ripped (confidence 23) [25BA9AAA] (AR v2)
Track 5 accurately ripped (confidence 23) [CE5708CE] (AR v2)
Track 6 accurately ripped (confidence 23) [DE202FE8] (AR v2)
Track 7 accurately ripped (confidence 23) [575AF6D6] (AR v2)
Track 8 accurately ripped (confidence 23) [E971D8FF] (AR v2)
Track 9 accurately ripped (confidence 23) [A7F5FE01] (AR v2)
Track 10 accurately ripped (confidence 23) [04479C53] (AR v2)
Track 11 accurately ripped (confidence 23) [CE28A8F3] (AR v2)
Track 12 accurately ripped (confidence 23) [41298845] (AR v2)
Track 13 accurately ripped (confidence 23) [CAEBF2BE] (AR v2)
Track 14 accurately ripped (confidence 22) [1BDF7E50] (AR v2)

All tracks accurately ripped

End of status report

–– CUETools DB Plugin V2.1.3

[CTDB TOCID: PIR6x6W_vrMtl90.W8KqmrUAxFs-] found, Submit result: PIR6x6W_vrMtl90.W8KqmrUAxFs- has been confirmed
[927845e8] (085/122) No match
[61594e5c] (001/122) No match
[6d53d579] (024/122) Accurately ripped
[1d2e5e99] (001/122) No match
[94b0c157] (001/122) No match
[48dbf6e7] (001/122) No match
[9e69aaea] (001/122) No match
[43fd198b] (001/122) No match
[b7883f22] (001/122) No match
[6bfcd4b9] (001/122) No match
[037899c5] (001/122) No match
[03ff478d] (001/122) No match
[8028f407] (001/122) No match
[341d2339] (001/122) No match
[70e37df7] (001/122) No match


==== Log checksum 036E03C6607666398EDDDC7145754F84E2DB9F23C26592A7BB11BAF2254AA95E ====

[CUETools log; Date: 10.05.2016 12:39:58; Version: 2.1.5]
[CTDB TOCID: PIR6x6W_vrMtl90.W8KqmrUAxFs-] found.
Track | CTDB Status
1 | ( 26/123) Accurately ripped
2 | ( 26/123) Accurately ripped
3 | ( 26/123) Accurately ripped
4 | ( 26/123) Accurately ripped
5 | ( 26/123) Accurately ripped
6 | ( 26/123) Accurately ripped
7 | ( 26/123) Accurately ripped
8 | ( 25/123) Accurately ripped
9 | ( 25/123) Accurately ripped
10 | ( 25/123) Accurately ripped
11 | ( 26/123) Accurately ripped
12 | ( 25/123) Accurately ripped
13 | ( 26/123) Accurately ripped
14 | ( 26/123) Accurately ripped
[AccurateRip ID: 002474af-01824b87-c710610e] found.
Track [ CRC | V2 ] Status
01 [b98556c8|eb51e01c] (020+023/175) Accurately ripped
02 [166c2dc1|37110b58] (020+023/174) Accurately ripped
03 [1b555653|ecf743ec] (021+023/175) Accurately ripped
04 [0a17543e|25ba9aaa] (020+023/177) Accurately ripped
05 [b538dea7|ce5708ce] (019+023/175) Accurately ripped
06 [5f905b80|de202fe8] (019+023/172) Accurately ripped
07 [0dd4a7bc|575af6d6] (019+023/175) Accurately ripped
08 [671116b5|e971d8ff] (020+023/174) Accurately ripped
09 [8f590e1d|a7f5fe01] (021+023/175) Accurately ripped
10 [df337ed2|04479c53] (019+023/171) Accurately ripped
11 [095ab8ad|ce28a8f3] (020+023/172) Accurately ripped
12 [6de483b0|41298845] (019+023/168) Accurately ripped
13 [a990e5da|caebf2be] (020+023/174) Accurately ripped
14 [e376bb3b|1bdf7e50] (020+022/169) Accurately ripped

Track Peak [ CRC32 ] [W/O NULL] [ LOG ]
– 98,8 [30BDF82F] [FDB97600] CRC32
01 98,8 [187EBD85] [2F576653]
02 97,7 [8BFCC61E] [4C17FD40]
03 98,8 [DDFCFDD8] [4F9FA989]
04 97,7 [86532529] [9F891377]
05 98,8 [6299CBD0] [FE2B94F3]
06 98,8 [32FF8258] [3DC413DF]
07 97,7 [CD573D84] [3EABEE01]
08 97,7 [F5924737] [5739FAA5]
09 97,7 [A2E1DC59] [B8A078BE]
10 98,8 [83EC9E6A] [DA1CEB0C]
11 98,8 [C1157C45] [5F9FAA94]
12 97,7 [0312D4B0] [B2A4DDC9]
13 98,8 [3BED3A9B] [B2F0771A]
14 98,8 [F475AFFF] [0D078426]

Billy Idol - VH1 Storytellers (2001)


All thanks go to Boris1

>>> Billy Idol in my Blog <<<

DOWNLOAD: