Subcategories

Big James and The Chicago Playboys - The Big Payback (2012)

Posted By: gribovar
Big James and The Chicago Playboys - The Big Payback (2012)

Big James and The Chicago Playboys - The Big Payback (2012)
EAC Rip | WavPack (image+.cue+log) - 345 MB | MP3 CBR 320 kbps (LAME 3.93) - 132 MB | Covers (18 MB) included
Genre: Blues | RAR 3% Rec. | Label: Blind Pig Records (BPCD 5143)

This exhilarating blues recording was captured at the historic Lionel Hampton Jazz Club in Paris. James and the band perform with an infectious enthusiasm and verve, and the crowd responds in kind. In addition to three of James's blues-tinged original tunes, the program ranges from the killer James Brown groove of the title cut to the soul classic "Trying To Live My Life Without You," a couple of Magic Sam gems, George Clinton's "I'll Stay," to the funky, set closing instrumental version of Deep Purple's "Smoke On The Water." "The Big Payback" is an unalloyed pleasure, a joyous celebration of the great tradition of horn-based blues ensembles that leaves the listener - much like the Parisian audience - wanting more.
Tracklist:
01. The Blues Will Never Die
02. Big Payback
03. Coldest Man I Ever Knew
04. All Your Love
05. Jody’s Got Your Girl and Gone
06. That’s Why I’m Crying
07. Trying To Live My Life Without You
08. I’ll Stay
09. Low Down Dirty Blues
10. Smoke On The Water

Total time: 48:00

Exact Audio Copy V1.0 beta 3 from 29. August 2011

EAC extraction logfile from 15. March 2012, 17:43

Big James and the Chicago Playboys / The Big Payback [Blind Pig BPCD 5143]

Used drive : Optiarc DVD RW AD-7200S Adapter: 2 ID: 1

Read mode : Secure
Utilize accurate stream : Yes
Defeat audio cache : Yes
Make use of C2 pointers : No

Read offset correction : 48
Overread into Lead-In and Lead-Out : No
Fill up missing offset samples with silence : Yes
Delete leading and trailing silent blocks : No
Null samples used in CRC calculations : Yes
Used interface : Installed external ASPI interface

Used output format : User Defined Encoder
Selected bitrate : 1024 kBit/s
Quality : High
Add ID3 tag : No
Command line compressor : C:\Program Files\Exact Audio Copy\wavpack.exe
Additional command line options : -hlmx2 %source% %dest%


TOC of the extracted CD

Track | Start | Length | Start sector | End sector
––––––––––––––––––––––––––––-
1 | 0:00.00 | 4:51.55 | 0 | 21879
2 | 4:51.55 | 5:28.50 | 21880 | 46529
3 | 10:20.30 | 4:26.51 | 46530 | 66530
4 | 14:47.06 | 4:19.51 | 66531 | 86006
5 | 19:06.57 | 5:26.40 | 86007 | 110496
6 | 24:33.22 | 5:17.29 | 110497 | 134300
7 | 29:50.51 | 3:48.69 | 134301 | 151469
8 | 33:39.45 | 6:37.03 | 151470 | 181247
9 | 40:16.48 | 5:18.67 | 181248 | 205164
10 | 45:35.40 | 2:24.18 | 205165 | 215982


Range status and errors

Selected range

Filename C:\lossless\Big James and the Chicago Playboys\Big James and the Chicago Playboys - The Big Payback [Blind Pig BPCD 5143].wav

Peak level 94.1 %
Extraction speed 3.7 X
Range quality 99.9 %
Test CRC 19E58ECF
Copy CRC 19E58ECF
Copy OK

No errors occurred


AccurateRip summary

Track 1 not present in database
Track 2 not present in database
Track 3 not present in database
Track 4 not present in database
Track 5 not present in database
Track 6 not present in database
Track 7 not present in database
Track 8 not present in database
Track 9 not present in database
Track 10 not present in database

None of the tracks are present in the AccurateRip database

End of status report

–– CUETools DB Plugin V2.1.3

[CTDB TOCID: 9LO1M4jpWoO3BQT9ElXoQ.Y4AUU-] found, Submit result: already submitted
[1f7e3f5a] (1/1) Accurately ripped


==== Log checksum D2AF53F8243C3C9552B8E3427160F65DC65E5A7130142D0AD260E37DBD5A3C68 ====

[CUETools log; Date: 11.09.2019 13:07:22; Version: 2.1.4]
[CTDB TOCID: 9LO1M4jpWoO3BQT9ElXoQ.Y4AUU-] found.
Track | CTDB Status
1 | (7/7) Accurately ripped
2 | (7/7) Accurately ripped
3 | (7/7) Accurately ripped
4 | (7/7) Accurately ripped
5 | (7/7) Accurately ripped
6 | (7/7) Accurately ripped
7 | (7/7) Accurately ripped
8 | (7/7) Accurately ripped
9 | (7/7) Accurately ripped
10 | (7/7) Accurately ripped
[AccurateRip ID: 00129c1c-0094d1de-8c0b3f0a] found.
Track [ CRC | V2 ] Status
01 [170bd966|650956a9] (0+4/4) Accurately ripped
02 [9252848f|f34447a0] (0+3/3) Accurately ripped
03 [bf0aba48|49201870] (0+3/3) Accurately ripped
04 [c72244b6|a9b6f10c] (0+3/3) Accurately ripped
05 [1ae98005|ba016c47] (0+3/3) Accurately ripped
06 [c597a511|5d06d968] (0+3/3) Accurately ripped
07 [4199eb08|de1007d9] (0+4/4) Accurately ripped
08 [d279c05a|5860607f] (0+3/3) Accurately ripped
09 [5a638410|01224f32] (0+3/3) Accurately ripped
10 [f5ca7803|14b66cb5] (0+3/3) Accurately ripped

Track Peak [ CRC32 ] [W/O NULL] [ LOG ]
– 94,1 [19E58ECF] [D16889E9] CRC32
01 94,1 [66A726A4] [4589BB2F]
02 94,1 [4E9A1DE1] [62102A68]
03 94,1 [6C3E96A1] [F365E7CB]
04 94,1 [B35CEFFE] [B1D93C31]
05 94,1 [AC698566] [22D062A9]
06 94,1 [61F8FA40] [2EA6C4C8]
07 94,1 [DD5A1985] [010CEC42]
08 94,1 [C070CEDA] [77B5A9A7]
09 94,1 [C08821A2] [4BF1A70C]
10 94,1 [9781BA38] [E49A616D]

Thanks to taurus66