Subcategories

Big Joe Shelton - Albums Collection (2008-2017) Updated

Posted By: popsakov
Big Joe Shelton - Albums Collection (2008-2017) Updated

Big Joe Shelton - Albums Collection (2008-2017)
4CD | EAC Rip | FLAC (Img) + Cue + Log ~ 1,51 Gb | MP3 CBR320 ~ 561 Mb
Full Scans | 03:16:58 | RAR 5% Recovery
Juke Joint Blues, Rockin' Blues, Blues Rock | Big Joe Shelton / ALT 45 Records

The musical roots of Big Joe Shelton, a 2012 Blues Music Award Nominee, run deep in the rich, dark, rich, soil of the Black Prairies of Northeast Mississippi; the same region that spawned the likes of blues icons Howlin’ Wolf, Big Joe Williams and Bukka White. As a young man Shelton was fortunate in befriending Williams and this friendship greatly influenced his musical sensibility.

Big Joe Shelton was born in the Black Prairie region of Northeast Mississippi. As a child growing up in a small Mississippi town he was exposed to an African- American culture which still strongly reflected that of the early part of the twentieth century. He attended tent minstrel shows, bar-b-que picnics and heard street musicians performing authentic, traditional blues. The Black Belt region is also the birthplace of blues legends Howlin’ Wolf, Bukka White and Big Joe Williams. As a young man he was fortunate in befriending Williams and this association greatly influenced his musical sensibilities.

Big Joe has performed at numerous festivals and clubs throughout the southeastern United States including: King Biscuit Blues Festival, Howlin’ Wolf Memorial Blues Festival, Freedom Creek Blues Festival and the Beal Street Mess Around. He has also toured England, France, Belgium, Bulgaria and the Netherlands. He has played with blues legends Big Joe Williams, Furry Lewis, Son Thomas, Junior Kimbrough, Fenton Robinson and BMA / Handy Award nominees Willie King, Blind Mississippi Morris, R. L. Burnside and Johnny Rawls as well as Daniel “Slick” Ballinger, the 2007 BMA Best New Artist and 2009 Grammy nominee Elvin Bishop.

Shelton was awarded a 2010 Artist Fellowship from the Mississippi Arts Commission and is a member of their “Artist Roster” as well as their “Mississippi Folk arts / Folklife Directory”. He was honored in 2007 by being included on the “Columbus / Cat Fish Alley” Mississippi Blues Trail Marker. Among his contributions toward perpetuation of the blues is his involvement with the Jazz Foundation of America, The Mississippi Arts Commission, and the Howlin’ Wolf Blues Society “Blues in School” educational programs.
***************

Big Joe Shelton - Albums Collection (2008-2017) Updated

Big Joe Shelton - Black Prairie Blues (2008)
EAC Rip | FLAC (Img) + Cue + Log ~ 503 Mb | MP3 CBR320 ~ 187 Mb
Full Scans | 00:59:14 | RAR 5% Recovery
Juke Joint Blues | Big Joe Shelton / ALT 45 Records #796873055208

“Black Prairie Blues”, his 2008 release, was a finalist in the 2009 International Blues Challenge for the Best Self-Produced CD Award. A song from that album, “Devil Lives in Memphis,” was nominated for 2008 song of the year by Blues Critic Magazine reader’s poll. The album was listed in the top ten on numerous national and international blues radio charts including: Australia, The Netherlands, Spain, United Kingdom, France, Canada, Germany, and the United States. It also received extensive play on Sirus XM satellite radio’s B.B. King’s Bluesville program. The CD garnered stellar reviews from national and international blues music magazines including: Living Blues (US), Elmore Magazine (US), Blues Matters (UK), Juke Blues (UK), and Blues Review (US).
Track List:

01. Ribs And Cat Whisky [2:17]
02. In Mississippi [5:28]
03. Chitlin' Lovin' Man [2:54]
04. Mississippi Night [4:59]
05. Hope We Live To See The Day [5:01]
06. One Too Many [3:38]
07. Devil Lives In Memphis [3:42]
08. Black Prairie Blues [5:25]
09. Nothin' Can Save It [3:01]
10. Scratchin' Yo Itch [4:04]
11. Best I Can Tell [6:47]
12. Cat Fish Alley [3:05]
13. Ears Like A Mule [2:29]
14. Can't Come Back [2:51]
15. Be A Woman [3:33]

Exact Audio Copy V0.99 prebeta 5 from 4. May 2009

Отчёт EAC об извлечении, выполненном 23. июля 2013, 22:19

Big Joe Shelton / Black Prairie Blues

Дисковод: PLEXTOR DVDR PX-880SA Adapter: 1 ID: 0

Режим чтения : Достоверность
Использование точного потока : Да
Отключение кэша аудио : Да
Использование указателей C2 : Нет

Коррекция смещения при чтении : 6
Способность читать области Lead-in и Lead-out : Нет
Заполнение пропущенных сэмплов тишиной : Да
Удаление блоков с тишиной в начале и конце : Нет
При вычислениях CRC использовались нулевые сэмплы : Да
Интерфейс : Установленный внешний ASPI-интерфейс

Выходной формат : Пользовательский кодировщик
Выбранный битрейт : 1024 kBit/s
Качество : Высокий
Добавление ID3-тэга : Нет
Утилита сжатия : C:\Program Files\Exact Audio Copy\FLAC\FLAC.EXE
Дополнительные параметры : -10 -V -T "ARTIST=%a" -T "TITLE=%t" -T "ALBUM=%g" -T "DATE=%y" -T "TRACKNUMBER=%n" -T "GENRE=%m" -T "COMMENT=%e" %s -o %d


TOC извлечённого CD

Трек | Старт | Длительность | Начальный сектор | Конечный сектор
––––––––––––––––––––––––––––––––––-
1 | 0:00.00 | 2:16.65 | 0 | 10264
2 | 2:16.65 | 5:28.16 | 10265 | 34880
3 | 7:45.06 | 2:53.71 | 34881 | 47926
4 | 10:39.02 | 4:58.46 | 47927 | 70322
5 | 15:37.48 | 5:01.28 | 70323 | 92925
6 | 20:39.01 | 3:37.74 | 92926 | 109274
7 | 24:17.00 | 3:42.32 | 109275 | 125956
8 | 27:59.32 | 5:25.29 | 125957 | 150360
9 | 33:24.61 | 3:00.39 | 150361 | 163899
10 | 36:25.25 | 4:04.21 | 163900 | 182220
11 | 40:29.46 | 6:47.15 | 182221 | 212760
12 | 47:16.61 | 3:04.57 | 212761 | 226617
13 | 50:21.43 | 2:28.39 | 226618 | 237756
14 | 52:50.07 | 2:50.73 | 237757 | 250579
15 | 55:41.05 | 3:33.23 | 250580 | 266577


Характеристики диапазона извлечения и сообщения об ошибках

Выбранный диапазон

Имя файла D:\BitComet\Big Joe Shelton(flac)\2008 - Black Prairie Blues\Big Joe Shelton - Black Prairie Blues.wav

Пиковый уровень 100.0 %
Качество диапазона 100.0 %
CRC теста E34FC665
CRC копии E34FC665
Копирование… OK

Ошибок не произошло


AccurateRip: сводка

Трек 1 точное извлечение (доверие 1) [5A7FD597]
Трек 2 точное извлечение (доверие 1) [C36FA95D]
Трек 3 точное извлечение (доверие 1) [1F3C3D32]
Трек 4 точное извлечение (доверие 1) [E7359CCE]
Трек 5 точное извлечение (доверие 1) [5672CBFE]
Трек 6 точное извлечение (доверие 1) [260DD00A]
Трек 7 точное извлечение (доверие 1) [3E8A4EAF]
Трек 8 точное извлечение (доверие 1) [7EA68030]
Трек 9 точное извлечение (доверие 1) [9423D965]
Трек 10 точное извлечение (доверие 1) [9B97C446]
Трек 11 точное извлечение (доверие 1) [35F547A5]
Трек 12 точное извлечение (доверие 1) [47A95371]
Трек 13 точное извлечение (доверие 1) [E4A3E4BB]
Трек 14 точное извлечение (доверие 1) [DE702CE2]
Трек 15 точное извлечение (доверие 1) [3DE86DC0]

Все треки извлечены точно

Конец отчёта

***************

Big Joe Shelton - Albums Collection (2008-2017) Updated

Big Joe Shelton - The Older I Get The Better I Was (2011)
EAC Rip | FLAC (Img) + Cue + Log ~ 305 Mb | MP3 CBR320 ~ 112 Mb
Full Scans | 00:38:38 | RAR 5% Recovery
Juke Joint Blues | Big Joe Shelton / ALT 45 Records #884501515986

“The Older I Get the Better I Was” is his second release on the independent ALT 45 Records label in 2011. It was recorded at the B.B. King Recording Studio on the campus of Mississippi Valley State University at Itta Bena over the Summer of 2010. It includes ten original tracks all conceived in the fertile imagination of this gifted songwriter. The title track of the CD was nominated for “Song of The Year” in the 2012 Blues Music Awards.
Track List:

01. Hole In Yo Soul [3:10]
02. The Older I Get The Better I Was [3:38]
03. What Else Can It Be [3:46]
04. Women And Whiskey [5:00]
05. Psychoanalyst Voodoo Queen [4:03]
06. Midnight In Mississippi [2:23]
07. Ashes To Ashes [5:24]
08. Thanks For The Love [5:21]
09. They Can't Be Satisfied [2:48]
10. Hard to Get Along [3:04]

Exact Audio Copy V0.99 prebeta 5 from 4. May 2009

Отчёт EAC об извлечении, выполненном 24. июля 2013, 4:10

Big Joe Shelton / The Older I Get The Better I Was

Дисковод: PLEXTOR DVDR PX-880SA Adapter: 1 ID: 0

Режим чтения : Достоверность
Использование точного потока : Да
Отключение кэша аудио : Да
Использование указателей C2 : Нет

Коррекция смещения при чтении : 6
Способность читать области Lead-in и Lead-out : Нет
Заполнение пропущенных сэмплов тишиной : Да
Удаление блоков с тишиной в начале и конце : Нет
При вычислениях CRC использовались нулевые сэмплы : Да
Интерфейс : Установленный внешний ASPI-интерфейс

Выходной формат : Пользовательский кодировщик
Выбранный битрейт : 1024 kBit/s
Качество : Высокий
Добавление ID3-тэга : Нет
Утилита сжатия : C:\Program Files\Exact Audio Copy\FLAC\FLAC.EXE
Дополнительные параметры : -10 -V -T "ARTIST=%a" -T "TITLE=%t" -T "ALBUM=%g" -T "DATE=%y" -T "TRACKNUMBER=%n" -T "GENRE=%m" -T "COMMENT=%e" %s -o %d


TOC извлечённого CD

Трек | Старт | Длительность | Начальный сектор | Конечный сектор
––––––––––––––––––––––––––––––––––-
1 | 0:00.00 | 3:09.62 | 0 | 14236
2 | 3:09.62 | 3:38.06 | 14237 | 30592
3 | 6:47.68 | 3:46.08 | 30593 | 47550
4 | 10:34.01 | 5:00.35 | 47551 | 70085
5 | 15:34.36 | 4:02.42 | 70086 | 88277
6 | 19:37.03 | 2:23.18 | 88278 | 99020
7 | 22:00.21 | 5:24.09 | 99021 | 123329
8 | 27:24.30 | 5:21.26 | 123330 | 147430
9 | 32:45.56 | 2:47.63 | 147431 | 160018
10 | 35:33.44 | 3:04.15 | 160019 | 173833


Характеристики диапазона извлечения и сообщения об ошибках

Выбранный диапазон

Имя файла D:\BitComet\Big Joe Shelton(flac)\2011- The Older I Get The Better I Was\Big Joe Shelton - The Older I Get The Better I Was.wav

Пиковый уровень 96.6 %
Качество диапазона 99.9 %
CRC теста 188ECBA2
CRC копии 188ECBA2
Копирование… OK

Ошибок не произошло


AccurateRip: сводка

Трек 1 точное извлечение (доверие 1) [942395B4]
Трек 2 точное извлечение (доверие 1) [E448E1EE]
Трек 3 точное извлечение (доверие 1) [29BE45D6]
Трек 4 точное извлечение (доверие 1) [17849DE7]
Трек 5 точное извлечение (доверие 1) [2195A89A]
Трек 6 точное извлечение (доверие 1) [1ABFAE39]
Трек 7 точное извлечение (доверие 1) [F3817AF7]
Трек 8 точное извлечение (доверие 1) [4829356E]
Трек 9 точное извлечение (доверие 1) [91EFD309]
Трек 10 точное извлечение (доверие 1) [74C7B481]

Все треки извлечены точно

Конец отчёта

***************

Big Joe Shelton - Albums Collection (2008-2017) Updated

Big Joe Shelton - I'd Never Let Her Down (2013)
EAC Rip | FLAC (Img) + Cue + Log ~ 345 Mb | MP3 CBR320 ~ 117 Mb
Full Scans | 00:43:24 | RAR 5% Recovery
Rockin' Blues | Big Joe Shelton / ALT 45 Records #884501920407

“I’d Never Let Her Down” is Shelton’s third release on the independent ALT 45 RECORDS label. It was recorded in Starkville Mississippi in January of 2013 and features eleven original songs all penned by Shelton. He is backed by his touring band, The Black Prairie Blues Ambassadors: Ben Ferrell, guitar, Ed Swan, Bass and Bob Damm, Percussion. They are joined by Bobby Shannon and David Reese on keys, Doug Thomas on Saxophone and Susan Alcorn Lobato on pedal steel guitar.
Track List:

01. Frog's Hair [3:15]
02. I'd Never Let Her Down [3:03]
03. How Good Love Could Be [4:04]
04. Stop The Hating [4:51]
05. Laugh Out Loud [5:55]
06. Little Willie [4:16]
07. Catfish Ed [3:50]
08. Pity Party [3:58]
09. Strong Addiction [3:29]
10. Riding With The Wind [4:21]
11. Leaving Yo Behind [2:22]

Exact Audio Copy V0.99 prebeta 5 from 4. May 2009

Отчёт EAC об извлечении, выполненном 13. июля 2013, 18:21

Big Joe Shelton / I'd Never Let Her Down

Дисковод: PLEXTOR DVDR PX-880SA Adapter: 1 ID: 0

Режим чтения : Достоверность
Использование точного потока : Да
Отключение кэша аудио : Да
Использование указателей C2 : Нет

Коррекция смещения при чтении : 6
Способность читать области Lead-in и Lead-out : Нет
Заполнение пропущенных сэмплов тишиной : Да
Удаление блоков с тишиной в начале и конце : Нет
При вычислениях CRC использовались нулевые сэмплы : Да
Интерфейс : Установленный внешний ASPI-интерфейс

Выходной формат : Пользовательский кодировщик
Выбранный битрейт : 1024 kBit/s
Качество : Высокий
Добавление ID3-тэга : Нет
Утилита сжатия : C:\Program Files\Exact Audio Copy\FLAC\FLAC.EXE
Дополнительные параметры : -10 -V -T "ARTIST=%a" -T "TITLE=%t" -T "ALBUM=%g" -T "DATE=%y" -T "TRACKNUMBER=%n" -T "GENRE=%m" -T "COMMENT=%e" %s -o %d


TOC извлечённого CD

Трек | Старт | Длительность | Начальный сектор | Конечный сектор
––––––––––––––––––––––––––––––––––-
1 | 0:00.00 | 3:14.42 | 0 | 14591
2 | 3:14.42 | 3:03.02 | 14592 | 28318
3 | 6:17.44 | 4:04.03 | 28319 | 46621
4 | 10:21.47 | 4:51.27 | 46622 | 68473
5 | 15:12.74 | 5:55.25 | 68474 | 95123
6 | 21:08.24 | 4:15.40 | 95124 | 114288
7 | 25:23.64 | 3:50.23 | 114289 | 131561
8 | 29:14.12 | 3:57.74 | 131562 | 149410
9 | 33:12.11 | 3:29.17 | 149411 | 165102
10 | 36:41.28 | 4:20.63 | 165103 | 184665
11 | 41:02.16 | 2:22.17 | 184666 | 195332


Характеристики диапазона извлечения и сообщения об ошибках

Выбранный диапазон

Имя файла D:\BitComet\Big Joe Shelton(flac)\2013 - I'd Never Let Her Down\Big Joe Shelton - I'd Never Let Her Down.wav

Пиковый уровень 98.8 %
Качество диапазона 100.0 %
CRC теста 7AF82570
CRC копии 7AF82570
Копирование… OK

Ошибок не произошло


AccurateRip: сводка

Трек 1 нет в базе данных
Трек 2 нет в базе данных
Трек 3 нет в базе данных
Трек 4 нет в базе данных
Трек 5 нет в базе данных
Трек 6 нет в базе данных
Трек 7 нет в базе данных
Трек 8 нет в базе данных
Трек 9 нет в базе данных
Трек 10 нет в базе данных
Трек 11 нет в базе данных

Ни одного трека нет в базе AccurateRip

Конец отчёта

***************

Big Joe Shelton - Albums Collection (2008-2017) Updated

Big Joe Shelton - Ridin' A Chicken (2017)
EAC Rip | FLAC (Img) + Cue + Log ~ 396 Mb | MP3 CBR320 ~ 143 Mb
Full Scans | 00:55:42 | RAR 5% Recovery
Blues Rock, Contemporary Blues | Big Joe Shelton / Alt45 Records #1004

Ridin' A Chicken is Blues Music Award nominee Big Joe Shelton's new release on the ALT 45 RECORDS label. It was recorded in Columbus Mississippi in January 2017. It includes 12 original tracks all written by Big Joe. The songs are inspired by the people, places and culture of his beloved Mississippi. He is backed up by his touring band, The Black Prairie Blues Ambassadors: Ben Ferrell - guitar, Ed Swan - bass, and Bob Damm - percussion. They are joined by Bobby Shannon - keys, Doug Thomas - sax, and Susan Alcorn Lobato - pedal steel guitar.
Track List:

01. Put the Chairs in the Wagon [4:46]
02. Ridin' a Chicken [4:53]
03. Got So Hot [5:50]
04. I Done Got Tired [3:50]
05. Just Let Me Bleed [4:14]
06. Inhale Blessings [3:38]
07. No Man's Land [2:54]
08. Pool Hall Red [5:09]
09. Lorraine [4:10]
10. Too Wet to Plow [5:41]
11. Time to Go Home [6:08]
12. My Future Lies Behind Me Now [4:29]

Exact Audio Copy V1.3 from 2. September 2016

Отчёт EAC об извлечении, выполненном 25. марта 2020, 16:54

Big Joe Shelton / Ridin' A Chicken

Дисковод: HL-DT-STDVD+-RW GH82N Adapter: 1 ID: 0

Режим чтения : Достоверность
Использование точного потока : Да
Отключение кэша аудио : Да
Использование указателей C2 : Нет

Коррекция смещения при чтении : 667
Способность читать области Lead-in и Lead-out : Нет
Заполнение пропущенных сэмплов тишиной : Да
Удаление блоков с тишиной в начале и конце : Нет
При вычислениях CRC использовались нулевые сэмплы : Да
Интерфейс : Встроенный Win32-интерфейс для Win NT/2000

Выходной формат : Пользовательский кодировщик
Выбранный битрейт : 1024 kBit/s
Качество : Высокий
Добавление ID3-тега : Нет
Утилита сжатия : C:\Program Files (x86)\Exact Audio Copy\FLAC\FLAC.EXE
Дополнительные параметры : -8 -V -T "ARTIST=%artist%" -T "ALBUM=%albumtitle%" -T "DATE=%year%" -T "GENRE=%genre%" -T "COMMENT=ripped by izia1956" %source%


TOC извлечённого CD

Трек | Старт | Длительность | Начальный сектор | Конечный сектор
––––––––––––––––––––––––––––––––––-
1 | 0:00.00 | 4:45.68 | 0 | 21442
2 | 4:45.68 | 4:53.24 | 21443 | 43441
3 | 9:39.17 | 5:49.38 | 43442 | 69654
4 | 15:28.55 | 3:49.66 | 69655 | 86895
5 | 19:18.46 | 4:13.54 | 86896 | 105924
6 | 23:32.25 | 3:37.59 | 105925 | 122258
7 | 27:10.09 | 2:54.12 | 122259 | 135320
8 | 30:04.21 | 5:09.08 | 135321 | 158503
9 | 35:13.29 | 4:10.27 | 158504 | 177280
10 | 39:23.56 | 5:41.25 | 177281 | 202880
11 | 45:05.06 | 6:08.16 | 202881 | 230496
12 | 51:13.22 | 4:28.57 | 230497 | 250653


Характеристики диапазона извлечения и сообщения об ошибках

Выбранный диапазон

Имя файла E:\BitComet\Big Joe Shelton(flac)\2017 - Ridin' A Chicken\Big Joe Shelton - Ridin' A Chicken.wav

Пиковый уровень 98.8 %
Скорость извлечения 7.5 X
Качество диапазона 100.0 %
CRC теста 11A02706
CRC копии 11A02706
Копирование… OK

Ошибок не произошло


AccurateRip: сводка

Трек 1 отсутствует в базе данных
Трек 2 отсутствует в базе данных
Трек 3 отсутствует в базе данных
Трек 4 отсутствует в базе данных
Трек 5 отсутствует в базе данных
Трек 6 отсутствует в базе данных
Трек 7 отсутствует в базе данных
Трек 8 отсутствует в базе данных
Трек 9 отсутствует в базе данных
Трек 10 отсутствует в базе данных
Трек 11 отсутствует в базе данных
Трек 12 отсутствует в базе данных

Ни одного трека нет в базе AccurateRip

Конец отчёта

==== Контрольная сумма отчёта EDD1A51983DC87B0B8A4604DB6C9F165DE509AF51024B1D73BE250B266CFF327 ====

All thanks go to izia1956

>>> My Blog <<<

DOWNLOAD: