Subcategories

Benny Carter - The Music Master [4CD Box Set, Recorded 1930-1952] (2004) (Repost)

Posted By: gribovar
Benny Carter - The Music Master [4CD Box Set, Recorded 1930-1952] (2004) (Repost)

Benny Carter - The Music Master [4CD Box Set, Recorded 1930-1952] (2004)
EAC Rip | FLAC (tracks+.cue+log) - 633 MB | Covers - 29 MB
Genre: Jazz, Big Band, Swing | RAR 3% Rec. | Label: Proper Records (Properbox 68)

Throughout much of the 20th century, Benny Carter was an accomplished composer, arranger, leader, sideman, and multi-instrumentalist. In 2004 the U.K.'s Proper label served his memory well with Proper Box 68 which carefully examines a 22-year segment from his unusually lengthy career. If a reasonably priced 88-track, four-CD set of swing and early modern mainstream jazz dating from 1930-1952 seems like too much of a good thing, maybe you really need to hear more jazz and not less, for here in the land of its birth we still have a lot of catching up to do in order to better comprehend this important part of our cultural heritage. A sensible two-CD equivalent would be Living Era's 51-track compilation When Lights Are Low, which has 31 tracks in common with Proper Box 68 and includes examples of Carter with Fletcher Henderson's Orchestra and McKinney's Cotton Pickers. Proper focuses more closely on bands which operated under Carter's direct leadership or influence. Although Carter is most often pictured holding an alto saxophone, he played a lot of trumpet as well as clarinet, tenor sax, and even a bit of drums. As an altoist he resembled Hilton Jefferson, Willie Smith, Johnny Hodges, and the young Pete Brown. For all his expertise as a reedman, Carter blows plenty of fine trumpet on Music Master.
Most of the first disc is devoted to the early '30s. Carter is heard leading his own bands, sitting in with visiting Englishman Spike Hughes & His Negro Orchestra, and with the Chocolate Dandies, a recurrent all-star swing band with varying personnel. Four different Chocolate Dandies sessions are represented on this collection. The first of these, recorded in December 1930, was essentially a condensed version of the Fletcher Henderson orchestra with Horace Henderson at the piano. The December 1933 Chocolate Dandies were racially mixed, which was a significant accomplishment back then. Carter revived the Dandies in the '40s with powerful improvisers like Roy Eldridge, Coleman Hawkins, Buck Clayton, and Ben Webster. Carter's productive adventures in Europe during the late '30s are well represented on this collection, appearing near the end of the first disc and occupying more than half of the second. Starting in London, the tour takes you through Copenhagen, Laren, Den Haag, and finally Paris, where he recorded "Farewell Blues" and "Blue Light Blues" with an octet that included tenor man Alix Combelle and guitarist Django Reinhardt. For thrilling examples of Carter's handling of the tenor saxophone during his London sessions, you might want to hunt down his 1936-1937 recordings as reissued in chronological sequence by Classics, as well as his alternate takes on Neatwork 2063.
Throughout the '40s, Carter recorded with many of the best jazz musicians on the scene, and Proper provides an excellent overview of his work during this period. The inclusion of two Keynote sessions from 1946 is a real treat, with Carter leading his own quartet and guesting with a small combo led by pianist Arnold Ross. The big surprise on Disc Four is the vocal on "Out of My Way" by drummer Sid Catlett: this may well be the only time he ever used his voice on a recording. Proper's Benny Carter edition finishes with seven examples of Carter as an early modern mainstream jazzman in groups assembled by producer Norman Granz. First comes the historic blowing session with the one-time-only combination of Charlie Parker, Johnny Hodges, Benny Carter, and Ben Webster. The closing tracks feature Carter backed by Oscar Peterson's quartet, with strings added on "Isn't It Romantic?" and "Key Largo."
CD 1 Tracklist (Accent on Swing):
01. Goodbye Blues
02. Cloudy Skies
03. Got Another Sweetie Now
04. Bugle Call Rag
05. Dee Blues
06. Swing It
07. Synthetic Love
08. Six Bells Stampede
09. Love, You're Not the One for Me
10. Sweet Sue, Just You
11. Blue Interlude
12. I Never Knew
13. Once Upon a Time
14. Krazy Kapers
15. Devil's Holiday
16. Lonesome Nights
17. Symphony in Riffs
18. Blue Lou
19. Shoot the Works
20. Dream Lullaby
21. Everybody Shuffle
22. These Foolish Things
23. Accent on Swing

Total time: 01:12:58

CD 2 Tracklist (When Lights Are Low):
01. When Lights Are Low
02. Blue Interlude
03. Gin and Jive
04. Nagasaki
05. There's a Small Hotel
06. I'm in the Mood for Swing
07. I'll Never Give In
08. Skip It
09. Lazy Afternoon
10. Blues in My Heart
11. Somebody Loves Me
12. Mighty Like the Blues
13. Pardon Me, Pretty Baby
14. My Buddy
15. Farewell Blues
16. Blue Light Blues
17. Melancholy Lullaby
18. When Lights Are Low
19. Riff Romp
20. Shufflebug Shuffle
21. Sleep
22. Fish Fry
23. Slow Freight
24. Night Hop
25. Pom Pom

Total time: 01:14:33

CD 3 Tracklist (Back Bay Boogie):
01. O.K. for Baby
02. Smack
03. I Can't Believe That You're in Love with Me
04. Boogie Woogie Sugar Blues
05. All of Me
06. Cuddle Up, Huddle Up
07. Midnight
08. Lullaby to a Dream
09. What a Difference a Day Made
10. Sunday
11. Back Bay Boogie
12. Poinciana
13. Love for Sale
14. I Can't Escape from You
15. I Can't Get Started
16. I Surrender Dear
17. Malibu
18. Forever Blues
19. Jump Call
20. Looking for a Boy
21. Rose Room
22. The Moon Is Low
23. Stairway to the Stars
24. Bye Bye Blues
25. I Don't Know Why I Love You, Like I Do

Total time: 01:16:48

CD 4 Tracklist (Funky Blues):
01. Moonglow
02. Give Me Something to Remember You By
03. Lady Be Good
04. Deep Purple
05. Sweet Georgia Brown
06. Out of My Way
07. What'll It Be
08. Cadillac Slim
09. Jam Blues
10. What Is This Thing Called Love?
11. Funky Blues
12. Isn't It Romantic?
13. Gone with the Wind
14. I Got It Bad and That Ain't Good
15. Key Largo

Total time: 01:19:38

Exact Audio Copy V0.99 prebeta 5 from 4. May 2009

EAC extraction logfile from 30. January 2011, 1:09

Benny Carter / The Music Master

Used drive : TSSTcorpCDDVDW SH-S203N Adapter: 0 ID: 2

Read mode : Secure
Utilize accurate stream : Yes
Defeat audio cache : Yes
Make use of C2 pointers : No

Read offset correction : 6
Overread into Lead-In and Lead-Out : No
Fill up missing offset samples with silence : Yes
Delete leading and trailing silent blocks : No
Null samples used in CRC calculations : Yes
Used interface : Installed external ASPI interface
Gap handling : Appended to previous track

Used output format : User Defined Encoder
Selected bitrate : 768 kBit/s
Quality : High
Add ID3 tag : No
Command line compressor : C:\Program Files\Exact Audio Copy\Flac\flac.exe
Additional command line options : -8 -V -T "ARTIST=%a" -T "TITLE=%t" -T "ALBUM=%g" -T "DATE=%y" -T "TRACKNUMBER=%n" -T "TOTALTRACKS=%x" -T "GENRE=%m" -T "ALBUMARTIST=%v" -T "ALBUM ARTIST=%v" -T "COMMENT=EAC V0.99 pb5, Secure Mode, Test & Copy, AccurateRip,


TOC of the extracted CD

Track | Start | Length | Start sector | End sector
––––––––––––––––––––––––––––-
1 | 0:00.00 | 3:21.00 | 0 | 15074
2 | 3:21.00 | 2:57.38 | 15075 | 28387
3 | 6:18.38 | 3:02.14 | 28388 | 42051
4 | 9:20.52 | 2:52.42 | 42052 | 54993
5 | 12:13.19 | 2:58.10 | 54994 | 68353
6 | 15:11.29 | 3:13.27 | 68354 | 82855
7 | 18:24.56 | 3:28.08 | 82856 | 98463
8 | 21:52.64 | 2:41.62 | 98464 | 110600
9 | 24:34.51 | 3:35.09 | 110601 | 126734
10 | 28:09.60 | 3:02.42 | 126735 | 140426
11 | 31:12.27 | 3:27.64 | 140427 | 156015
12 | 34:40.16 | 3:06.13 | 156016 | 169978
13 | 37:46.29 | 3:27.21 | 169979 | 185524
14 | 41:13.50 | 3:30.59 | 185525 | 201333
15 | 44:44.34 | 3:09.39 | 201334 | 215547
16 | 47:53.73 | 3:36.13 | 215548 | 231760
17 | 51:30.11 | 3:06.13 | 231761 | 245723
18 | 54:36.24 | 3:08.13 | 245724 | 259836
19 | 57:44.37 | 3:00.15 | 259837 | 273351
20 | 60:44.52 | 3:12.31 | 273352 | 287782
21 | 63:57.08 | 3:05.44 | 287783 | 301701
22 | 67:02.52 | 3:02.67 | 301702 | 315418
23 | 70:05.44 | 2:51.62 | 315419 | 328305


Track 1

Filename J:\New Rips\Benny Carter - The Music Master (2004) [FLAC] {Properbox 68 rec 1930-52}\disc 1of4\01 - Goodbye Blues.wav

Pre-gap length 0:00:02.00

Peak level 94.3 %
Track quality 100.0 %
Test CRC 6FA2C6DA
Copy CRC 6FA2C6DA
Accurately ripped (confidence 6) [46B6DEE4]
Copy OK

Track 2

Filename J:\New Rips\Benny Carter - The Music Master (2004) [FLAC] {Properbox 68 rec 1930-52}\disc 1of4\02 - Cloudy Skies.wav

Pre-gap length 0:00:02.54

Peak level 94.2 %
Track quality 100.0 %
Test CRC 6AB20D3D
Copy CRC 6AB20D3D
Accurately ripped (confidence 6) [6135EAE9]
Copy OK

Track 3

Filename J:\New Rips\Benny Carter - The Music Master (2004) [FLAC] {Properbox 68 rec 1930-52}\disc 1of4\03 - Got Another Sweetie Now.wav

Pre-gap length 0:00:02.54

Peak level 94.3 %
Track quality 100.0 %
Test CRC 21AD2745
Copy CRC 21AD2745
Accurately ripped (confidence 6) [0688D913]
Copy OK

Track 4

Filename J:\New Rips\Benny Carter - The Music Master (2004) [FLAC] {Properbox 68 rec 1930-52}\disc 1of4\04 - Bugle Call Rag.wav

Pre-gap length 0:00:02.53

Peak level 94.3 %
Track quality 100.0 %
Test CRC 591AD533
Copy CRC 591AD533
Accurately ripped (confidence 6) [D9600AB8]
Copy OK

Track 5

Filename J:\New Rips\Benny Carter - The Music Master (2004) [FLAC] {Properbox 68 rec 1930-52}\disc 1of4\05 - Dee Blues.wav

Pre-gap length 0:00:02.54

Peak level 94.2 %
Track quality 100.0 %
Test CRC 31D42A36
Copy CRC 31D42A36
Accurately ripped (confidence 6) [BE67F139]
Copy OK

Track 6

Filename J:\New Rips\Benny Carter - The Music Master (2004) [FLAC] {Properbox 68 rec 1930-52}\disc 1of4\06 - Swing It.wav

Pre-gap length 0:00:02.54

Peak level 84.0 %
Track quality 100.0 %
Test CRC EC99F6C3
Copy CRC EC99F6C3
Accurately ripped (confidence 6) [0C7F814A]
Copy OK

Track 7

Filename J:\New Rips\Benny Carter - The Music Master (2004) [FLAC] {Properbox 68 rec 1930-52}\disc 1of4\07 - Synthetic Love.wav

Pre-gap length 0:00:02.54

Peak level 94.2 %
Track quality 100.0 %
Test CRC 8E5E24F3
Copy CRC 8E5E24F3
Accurately ripped (confidence 6) [EFE09BE9]
Copy OK

Track 8

Filename J:\New Rips\Benny Carter - The Music Master (2004) [FLAC] {Properbox 68 rec 1930-52}\disc 1of4\08 - Six Bells Stampede.wav

Pre-gap length 0:00:02.54

Peak level 94.3 %
Track quality 100.0 %
Test CRC 0C773E64
Copy CRC 0C773E64
Accurately ripped (confidence 6) [72A81940]
Copy OK

Track 9

Filename J:\New Rips\Benny Carter - The Music Master (2004) [FLAC] {Properbox 68 rec 1930-52}\disc 1of4\09 - Love You're Not The One For Me.wav

Pre-gap length 0:00:02.54

Peak level 84.0 %
Track quality 100.0 %
Test CRC DB33DA9A
Copy CRC DB33DA9A
Accurately ripped (confidence 6) [0D966592]
Copy OK

Track 10

Filename J:\New Rips\Benny Carter - The Music Master (2004) [FLAC] {Properbox 68 rec 1930-52}\disc 1of4\10 - Sweet Sue Just You.wav

Pre-gap length 0:00:02.54

Peak level 74.8 %
Track quality 100.0 %
Test CRC 31D8B697
Copy CRC 31D8B697
Accurately ripped (confidence 6) [D4F41682]
Copy OK

Track 11

Filename J:\New Rips\Benny Carter - The Music Master (2004) [FLAC] {Properbox 68 rec 1930-52}\disc 1of4\11 - Blue Interlude.wav

Pre-gap length 0:00:02.54

Peak level 84.0 %
Track quality 99.9 %
Test CRC 1188286B
Copy CRC 1188286B
Accurately ripped (confidence 6) [816DF3D3]
Copy OK

Track 12

Filename J:\New Rips\Benny Carter - The Music Master (2004) [FLAC] {Properbox 68 rec 1930-52}\disc 1of4\12 - I Never Knew.wav

Pre-gap length 0:00:02.54

Peak level 94.2 %
Track quality 100.0 %
Test CRC D7AEB22A
Copy CRC D7AEB22A
Accurately ripped (confidence 6) [7F5AAE20]
Copy OK

Track 13

Filename J:\New Rips\Benny Carter - The Music Master (2004) [FLAC] {Properbox 68 rec 1930-52}\disc 1of4\13 - Once Upon A Time.wav

Pre-gap length 0:00:02.54

Peak level 94.2 %
Track quality 100.0 %
Test CRC 66A7CF1E
Copy CRC 66A7CF1E
Accurately ripped (confidence 6) [F8E70C3F]
Copy OK

Track 14

Filename J:\New Rips\Benny Carter - The Music Master (2004) [FLAC] {Properbox 68 rec 1930-52}\disc 1of4\14 - Krazy Kapers.wav

Pre-gap length 0:00:02.54

Peak level 94.3 %
Track quality 100.0 %
Test CRC B6A108C4
Copy CRC B6A108C4
Accurately ripped (confidence 6) [3E41D888]
Copy OK

Track 15

Filename J:\New Rips\Benny Carter - The Music Master (2004) [FLAC] {Properbox 68 rec 1930-52}\disc 1of4\15 - Devil's Holiday.wav

Pre-gap length 0:00:02.54

Peak level 94.3 %
Track quality 100.0 %
Test CRC 6ED99172
Copy CRC 6ED99172
Accurately ripped (confidence 6) [5300B63A]
Copy OK

Track 16

Filename J:\New Rips\Benny Carter - The Music Master (2004) [FLAC] {Properbox 68 rec 1930-52}\disc 1of4\16 - Lonesome Nights.wav

Pre-gap length 0:00:02.54

Peak level 94.2 %
Track quality 99.9 %
Test CRC 6842F8FF
Copy CRC 6842F8FF
Accurately ripped (confidence 6) [1D025C49]
Copy OK

Track 17

Filename J:\New Rips\Benny Carter - The Music Master (2004) [FLAC] {Properbox 68 rec 1930-52}\disc 1of4\17 - Symphony In Riffs.wav

Pre-gap length 0:00:02.54

Peak level 94.2 %
Track quality 100.0 %
Test CRC 08D9723B
Copy CRC 08D9723B
Accurately ripped (confidence 6) [7315B460]
Copy OK

Track 18

Filename J:\New Rips\Benny Carter - The Music Master (2004) [FLAC] {Properbox 68 rec 1930-52}\disc 1of4\18 - Blue Lou.wav

Pre-gap length 0:00:02.54

Peak level 53.1 %
Track quality 100.0 %
Test CRC 769484BF
Copy CRC 769484BF
Accurately ripped (confidence 6) [FA25E9BC]
Copy OK

Track 19

Filename J:\New Rips\Benny Carter - The Music Master (2004) [FLAC] {Properbox 68 rec 1930-52}\disc 1of4\19 - Shoot The Works.wav

Pre-gap length 0:00:02.54

Peak level 72.7 %
Track quality 100.0 %
Test CRC 9B6E9782
Copy CRC 9B6E9782
Accurately ripped (confidence 6) [E7E31094]
Copy OK

Track 20

Filename J:\New Rips\Benny Carter - The Music Master (2004) [FLAC] {Properbox 68 rec 1930-52}\disc 1of4\20 - Dream Lullaby.wav

Pre-gap length 0:00:02.53

Peak level 84.0 %
Track quality 100.0 %
Test CRC C8583EEC
Copy CRC C8583EEC
Accurately ripped (confidence 6) [1E7D9680]
Copy OK

Track 21

Filename J:\New Rips\Benny Carter - The Music Master (2004) [FLAC] {Properbox 68 rec 1930-52}\disc 1of4\21 - Everybody Shuffle.wav

Pre-gap length 0:00:02.54

Peak level 84.0 %
Track quality 100.0 %
Test CRC AC32017B
Copy CRC AC32017B
Accurately ripped (confidence 6) [90844B47]
Copy OK

Track 22

Filename J:\New Rips\Benny Carter - The Music Master (2004) [FLAC] {Properbox 68 rec 1930-52}\disc 1of4\22 - These Foolish Things.wav

Pre-gap length 0:00:02.54

Peak level 74.9 %
Track quality 100.0 %
Test CRC 010C727F
Copy CRC 010C727F
Accurately ripped (confidence 6) [BE71A453]
Copy OK

Track 23

Filename J:\New Rips\Benny Carter - The Music Master (2004) [FLAC] {Properbox 68 rec 1930-52}\disc 1of4\23 - Accent On Swing.wav

Pre-gap length 0:00:02.54

Peak level 94.2 %
Track quality 99.9 %
Test CRC FAC15198
Copy CRC FAC15198
Accurately ripped (confidence 6) [ED985215]
Copy OK


All tracks accurately ripped

No errors occurred

End of status report

[CUETools log; Date: 14.07.2018 11:53:53; Version: 2.1.4]
[CTDB TOCID: 9V.FnEalr4QSI7h.A6QY4Y_.zqo-] found.
Track | CTDB Status
1 | (5/5) Accurately ripped
2 | (5/5) Accurately ripped
3 | (5/5) Accurately ripped
4 | (5/5) Accurately ripped
5 | (5/5) Accurately ripped
6 | (5/5) Accurately ripped
7 | (5/5) Accurately ripped
8 | (5/5) Accurately ripped
9 | (5/5) Accurately ripped
10 | (5/5) Accurately ripped
11 | (5/5) Accurately ripped
12 | (5/5) Accurately ripped
13 | (5/5) Accurately ripped
14 | (5/5) Accurately ripped
15 | (5/5) Accurately ripped
16 | (5/5) Accurately ripped
17 | (5/5) Accurately ripped
18 | (5/5) Accurately ripped
19 | (5/5) Accurately ripped
20 | (5/5) Accurately ripped
21 | (5/5) Accurately ripped
22 | (5/5) Accurately ripped
23 | (5/5) Accurately ripped
[AccurateRip ID: 003c1f88-03ed26c4-56111917] found.
Track [ CRC | V2 ] Status
01 [46b6dee4|d450701d] (07+05/12) Accurately ripped
02 [6135eae9|a6e0e25b] (07+05/12) Accurately ripped
03 [0688d913|26e1d4a0] (07+05/12) Accurately ripped
04 [d9600ab8|fc0ddba8] (07+05/12) Accurately ripped
05 [be67f139|8d589638] (07+05/12) Accurately ripped
06 [0c7f814a|3fe31bcf] (07+05/12) Accurately ripped
07 [efe09be9|66004f94] (07+05/12) Accurately ripped
08 [72a81940|16869155] (07+05/12) Accurately ripped
09 [0d966592|79ed13d0] (07+05/12) Accurately ripped
10 [d4f41682|7e5ff7eb] (07+05/12) Accurately ripped
11 [816df3d3|41a24e87] (07+05/12) Accurately ripped
12 [7f5aae20|1fcb6469] (07+05/12) Accurately ripped
13 [f8e70c3f|94d5d211] (07+05/12) Accurately ripped
14 [3e41d888|a55cb221] (07+05/12) Accurately ripped
15 [5300b63a|83d9c6e2] (07+05/12) Accurately ripped
16 [1d025c49|277f5d92] (07+05/12) Accurately ripped
17 [7315b460|820cd20e] (07+05/12) Accurately ripped
18 [fa25e9bc|b3bf6262] (07+05/12) Accurately ripped
19 [e7e31094|da202c83] (07+05/12) Accurately ripped
20 [1e7d9680|d0311779] (07+05/12) Accurately ripped
21 [90844b47|6fcdea33] (07+05/12) Accurately ripped
22 [be71a453|38b79df7] (07+05/12) Accurately ripped
23 [ed985215|d1f5bca3] (07+05/12) Accurately ripped

Track Peak [ CRC32 ] [W/O NULL] [ LOG ]
– 94,3 [0F5B46F9] [CD74EF96]
01 94,3 [6FA2C6DA] [ACF790D8] CRC32
02 94,2 [6AB20D3D] [1923DF2F] CRC32
03 94,3 [21AD2745] [F94E15A6] CRC32
04 94,3 [591AD533] [9B464731] CRC32
05 94,2 [31D42A36] [211C8531] CRC32
06 84,0 [EC99F6C3] [F51268CF] CRC32
07 94,2 [8E5E24F3] [006FEBF7] CRC32
08 94,3 [0C773E64] [1E921B93] CRC32
09 84,0 [DB33DA9A] [5B5DAC64] CRC32
10 74,8 [31D8B697] [9EE0818B] CRC32
11 84,0 [1188286B] [BB8BCCA9] CRC32
12 94,2 [D7AEB22A] [9EE037F4] CRC32
13 94,2 [66A7CF1E] [4C5E143A] CRC32
14 94,3 [B6A108C4] [E8C410C2] CRC32
15 94,3 [6ED99172] [348DFC53] CRC32
16 94,2 [6842F8FF] [DC6E8454] CRC32
17 94,2 [08D9723B] [26B3CFEC] CRC32
18 53,1 [769484BF] [60D66053] CRC32
19 72,7 [9B6E9782] [502DC934] CRC32
20 84,0 [C8583EEC] [0C362146] CRC32
21 84,0 [AC32017B] [64FF0FD3] CRC32
22 74,9 [010C727F] [25200A86] CRC32
23 94,2 [FAC15198] [96B20065] CRC32

Exact Audio Copy V0.99 prebeta 5 from 4. May 2009

EAC extraction logfile from 30. January 2011, 1:53

Benny Carter / The Music Master

Used drive : TSSTcorpCDDVDW SH-S203N Adapter: 0 ID: 2

Read mode : Secure
Utilize accurate stream : Yes
Defeat audio cache : Yes
Make use of C2 pointers : No

Read offset correction : 6
Overread into Lead-In and Lead-Out : No
Fill up missing offset samples with silence : Yes
Delete leading and trailing silent blocks : No
Null samples used in CRC calculations : Yes
Used interface : Installed external ASPI interface
Gap handling : Appended to previous track

Used output format : User Defined Encoder
Selected bitrate : 768 kBit/s
Quality : High
Add ID3 tag : No
Command line compressor : C:\Program Files\Exact Audio Copy\Flac\flac.exe
Additional command line options : -8 -V -T "ARTIST=%a" -T "TITLE=%t" -T "ALBUM=%g" -T "DATE=%y" -T "TRACKNUMBER=%n" -T "TOTALTRACKS=%x" -T "GENRE=%m" -T "ALBUMARTIST=%v" -T "ALBUM ARTIST=%v" -T "COMMENT=EAC V0.99 pb5, Secure Mode, Test & Copy, AccurateRip,


TOC of the extracted CD

Track | Start | Length | Start sector | End sector
––––––––––––––––––––––––––––-
1 | 0:00.00 | 2:52.00 | 0 | 12899
2 | 2:52.00 | 3:10.28 | 12900 | 27177
3 | 6:02.28 | 2:58.14 | 27178 | 40541
4 | 9:00.42 | 2:59.64 | 40542 | 54030
5 | 12:00.31 | 3:08.13 | 54031 | 68143
6 | 15:08.44 | 2:35.56 | 68144 | 79824
7 | 17:44.25 | 2:43.44 | 79825 | 92093
8 | 20:27.69 | 2:59.08 | 92094 | 105526
9 | 23:27.02 | 3:04.22 | 105527 | 119348
10 | 26:31.24 | 2:36.27 | 119349 | 131075
11 | 29:07.51 | 2:49.03 | 131076 | 143753
12 | 31:56.54 | 3:05.25 | 143754 | 157653
13 | 35:02.04 | 3:00.36 | 157654 | 171189
14 | 38:02.40 | 2:49.62 | 171190 | 183926
15 | 40:52.27 | 3:16.17 | 183927 | 198643
16 | 44:08.44 | 3:07.01 | 198644 | 212669
17 | 47:15.45 | 2:58.43 | 212670 | 226062
18 | 50:14.13 | 2:53.32 | 226063 | 239069
19 | 53:07.45 | 2:57.64 | 239070 | 252408
20 | 56:05.34 | 2:48.02 | 252409 | 265010
21 | 58:53.36 | 3:00.50 | 265011 | 278560
22 | 61:54.11 | 3:12.68 | 278561 | 293028
23 | 65:07.04 | 3:23.03 | 293029 | 308256
24 | 68:30.07 | 3:11.29 | 308257 | 322610
25 | 71:41.36 | 2:52.40 | 322611 | 335550


Track 1

Filename J:\New Rips\Benny Carter - The Music Master (2004) [FLAC] {Properbox 68 rec 1930-52}\disc 2of4\01 - When Lights Are Low.wav

Pre-gap length 0:00:02.00

Peak level 84.0 %
Track quality 99.9 %
Test CRC BDB4124C
Copy CRC BDB4124C
Accurately ripped (confidence 6) [84E19E89]
Copy OK

Track 2

Filename J:\New Rips\Benny Carter - The Music Master (2004) [FLAC] {Properbox 68 rec 1930-52}\disc 2of4\02 - Blue Interlude.wav

Pre-gap length 0:00:02.54

Peak level 94.2 %
Track quality 100.0 %
Test CRC 971B877E
Copy CRC 971B877E
Accurately ripped (confidence 5) [3DB056C3]
Copy OK

Track 3

Filename J:\New Rips\Benny Carter - The Music Master (2004) [FLAC] {Properbox 68 rec 1930-52}\disc 2of4\03 - Gin And Jive.wav

Pre-gap length 0:00:02.54

Peak level 94.3 %
Track quality 100.0 %
Test CRC 4215E336
Copy CRC 4215E336
Accurately ripped (confidence 6) [A2712170]
Copy OK

Track 4

Filename J:\New Rips\Benny Carter - The Music Master (2004) [FLAC] {Properbox 68 rec 1930-52}\disc 2of4\04 - Nagasaki.wav

Pre-gap length 0:00:02.54

Peak level 84.0 %
Track quality 100.0 %
Test CRC 3650A844
Copy CRC 3650A844
Accurately ripped (confidence 6) [4C5AB40C]
Copy OK

Track 5

Filename J:\New Rips\Benny Carter - The Music Master (2004) [FLAC] {Properbox 68 rec 1930-52}\disc 2of4\05 - There's A Small Hotel.wav

Pre-gap length 0:00:02.54

Peak level 94.2 %
Track quality 100.0 %
Test CRC 1B4572C7
Copy CRC 1B4572C7
Accurately ripped (confidence 6) [EB377567]
Copy OK

Track 6

Filename J:\New Rips\Benny Carter - The Music Master (2004) [FLAC] {Properbox 68 rec 1930-52}\disc 2of4\06 - I'm In The Mood For Swing.wav

Pre-gap length 0:00:02.54

Peak level 84.0 %
Track quality 99.9 %
Test CRC 31D30CF2
Copy CRC 31D30CF2
Accurately ripped (confidence 6) [7321684B]
Copy OK

Track 7

Filename J:\New Rips\Benny Carter - The Music Master (2004) [FLAC] {Properbox 68 rec 1930-52}\disc 2of4\07 - I'll Never Give In.wav

Pre-gap length 0:00:02.54

Peak level 84.0 %
Track quality 100.0 %
Test CRC 02AA553B
Copy CRC 02AA553B
Accurately ripped (confidence 6) [6359E4BC]
Copy OK

Track 8

Filename J:\New Rips\Benny Carter - The Music Master (2004) [FLAC] {Properbox 68 rec 1930-52}\disc 2of4\08 - Skip It.wav

Pre-gap length 0:00:02.54

Peak level 84.0 %
Track quality 100.0 %
Test CRC 8E925F99
Copy CRC 8E925F99
Accurately ripped (confidence 6) [94E5FD4E]
Copy OK

Track 9

Filename J:\New Rips\Benny Carter - The Music Master (2004) [FLAC] {Properbox 68 rec 1930-52}\disc 2of4\09 - Lazy Afternoon.wav

Pre-gap length 0:00:02.54

Peak level 94.3 %
Track quality 99.9 %
Test CRC DA3B8964
Copy CRC DA3B8964
Accurately ripped (confidence 6) [B6F32381]
Copy OK

Track 10

Filename J:\New Rips\Benny Carter - The Music Master (2004) [FLAC] {Properbox 68 rec 1930-52}\disc 2of4\10 - Blues In My Heart.wav

Pre-gap length 0:00:02.54

Peak level 94.3 %
Track quality 100.0 %
Test CRC FE292C9C
Copy CRC FE292C9C
Accurately ripped (confidence 6) [E328E270]
Copy OK

Track 11

Filename J:\New Rips\Benny Carter - The Music Master (2004) [FLAC] {Properbox 68 rec 1930-52}\disc 2of4\11 - Somebody Loves Me.wav

Pre-gap length 0:00:02.54

Peak level 84.0 %
Track quality 100.0 %
Test CRC 4FF9ED6E
Copy CRC 4FF9ED6E
Accurately ripped (confidence 6) [4E6747FC]
Copy OK

Track 12

Filename J:\New Rips\Benny Carter - The Music Master (2004) [FLAC] {Properbox 68 rec 1930-52}\disc 2of4\12 - Mighty Like The Blues.wav

Pre-gap length 0:00:02.54

Peak level 94.3 %
Track quality 100.0 %
Test CRC 6942B42B
Copy CRC 6942B42B
Accurately ripped (confidence 6) [5389889A]
Copy OK

Track 13

Filename J:\New Rips\Benny Carter - The Music Master (2004) [FLAC] {Properbox 68 rec 1930-52}\disc 2of4\13 - Pardon Me Pretty Baby.wav

Pre-gap length 0:00:02.54

Peak level 84.0 %
Track quality 100.0 %
Test CRC 17D7AAF3
Copy CRC 17D7AAF3
Accurately ripped (confidence 6) [34B371CC]
Copy OK

Track 14

Filename J:\New Rips\Benny Carter - The Music Master (2004) [FLAC] {Properbox 68 rec 1930-52}\disc 2of4\14 - My Buddy.wav

Pre-gap length 0:00:02.54

Peak level 84.0 %
Track quality 100.0 %
Test CRC D29E7EBC
Copy CRC D29E7EBC
Accurately ripped (confidence 6) [CBD24C3C]
Copy OK

Track 15

Filename J:\New Rips\Benny Carter - The Music Master (2004) [FLAC] {Properbox 68 rec 1930-52}\disc 2of4\15 - Farewell Blues.wav

Pre-gap length 0:00:02.54

Peak level 94.2 %
Track quality 99.9 %
Test CRC 57A04316
Copy CRC 57A04316
Accurately ripped (confidence 6) [750A40BE]
Copy OK

Track 16

Filename J:\New Rips\Benny Carter - The Music Master (2004) [FLAC] {Properbox 68 rec 1930-52}\disc 2of4\16 - Blue Light Blues.wav

Pre-gap length 0:00:02.54

Peak level 84.0 %
Track quality 100.0 %
Test CRC 6FF822B1
Copy CRC 6FF822B1
Accurately ripped (confidence 6) [7F57A912]
Copy OK

Track 17

Filename J:\New Rips\Benny Carter - The Music Master (2004) [FLAC] {Properbox 68 rec 1930-52}\disc 2of4\17 - Melancholy Lullaby.wav

Pre-gap length 0:00:02.54

Peak level 94.3 %
Track quality 100.0 %
Test CRC 3FC17F18
Copy CRC 3FC17F18
Accurately ripped (confidence 6) [3BB3FCB8]
Copy OK

Track 18

Filename J:\New Rips\Benny Carter - The Music Master (2004) [FLAC] {Properbox 68 rec 1930-52}\disc 2of4\18 - When Lights Are Low.wav

Pre-gap length 0:00:02.54

Peak level 94.3 %
Track quality 100.0 %
Test CRC 27E03FB8
Copy CRC 27E03FB8
Accurately ripped (confidence 6) [84D32244]
Copy OK

Track 19

Filename J:\New Rips\Benny Carter - The Music Master (2004) [FLAC] {Properbox 68 rec 1930-52}\disc 2of4\19 - Riff Romp.wav

Pre-gap length 0:00:02.54

Peak level 82.7 %
Track quality 100.0 %
Test CRC 65918BCD
Copy CRC 65918BCD
Accurately ripped (confidence 6) [781FE58A]
Copy OK

Track 20

Filename J:\New Rips\Benny Carter - The Music Master (2004) [FLAC] {Properbox 68 rec 1930-52}\disc 2of4\20 - Shufflebug Shuffle.wav

Pre-gap length 0:00:02.54

Peak level 94.2 %
Track quality 99.9 %
Test CRC 1575FA41
Copy CRC 1575FA41
Accurately ripped (confidence 6) [CFD71050]
Copy OK

Track 21

Filename J:\New Rips\Benny Carter - The Music Master (2004) [FLAC] {Properbox 68 rec 1930-52}\disc 2of4\21 - Sleep.wav

Pre-gap length 0:00:02.54

Peak level 94.2 %
Track quality 99.9 %
Test CRC 67820D35
Copy CRC 67820D35
Accurately ripped (confidence 6) [353D753F]
Copy OK

Track 22

Filename J:\New Rips\Benny Carter - The Music Master (2004) [FLAC] {Properbox 68 rec 1930-52}\disc 2of4\22 - Fish Fry.wav

Pre-gap length 0:00:02.54

Peak level 94.3 %
Track quality 99.9 %
Test CRC AF5BDB28
Copy CRC AF5BDB28
Accurately ripped (confidence 6) [93AE09A9]
Copy OK

Track 23

Filename J:\New Rips\Benny Carter - The Music Master (2004) [FLAC] {Properbox 68 rec 1930-52}\disc 2of4\23 - Slow Freight.wav

Pre-gap length 0:00:02.54

Peak level 94.3 %
Track quality 100.0 %
Test CRC 2E730FB1
Copy CRC 2E730FB1
Accurately ripped (confidence 6) [9505979F]
Copy OK

Track 24

Filename J:\New Rips\Benny Carter - The Music Master (2004) [FLAC] {Properbox 68 rec 1930-52}\disc 2of4\24 - Night Hop.wav

Pre-gap length 0:00:02.54

Peak level 51.0 %
Track quality 100.0 %
Test CRC 27069023
Copy CRC 27069023
Accurately ripped (confidence 6) [46834D1E]
Copy OK

Track 25

Filename J:\New Rips\Benny Carter - The Music Master (2004) [FLAC] {Properbox 68 rec 1930-52}\disc 2of4\25 - Pom Pom.wav

Pre-gap length 0:00:02.54

Peak level 50.3 %
Track quality 100.0 %
Test CRC 4C11C2D7
Copy CRC 4C11C2D7
Accurately ripped (confidence 6) [E6A0C245]
Copy OK


All tracks accurately ripped

No errors occurred

End of status report

[CUETools log; Date: 14.07.2018 11:55:54; Version: 2.1.4]
[CTDB TOCID: ILzoIJJevqVQryZT81w8W1UTnPI-] found.
Track | CTDB Status
1 | (5/5) Accurately ripped
2 | (5/5) Accurately ripped
3 | (5/5) Accurately ripped
4 | (5/5) Accurately ripped
5 | (5/5) Accurately ripped
6 | (5/5) Accurately ripped
7 | (5/5) Accurately ripped
8 | (5/5) Accurately ripped
9 | (5/5) Accurately ripped
10 | (5/5) Accurately ripped
11 | (5/5) Accurately ripped
12 | (5/5) Accurately ripped
13 | (5/5) Accurately ripped
14 | (5/5) Accurately ripped
15 | (5/5) Accurately ripped
16 | (5/5) Accurately ripped
17 | (5/5) Accurately ripped
18 | (5/5) Accurately ripped
19 | (5/5) Accurately ripped
20 | (5/5) Accurately ripped
21 | (5/5) Accurately ripped
22 | (5/5) Accurately ripped
23 | (5/5) Accurately ripped
24 | (5/5) Accurately ripped
25 | (5/5) Accurately ripped
[AccurateRip ID: 0041e75b-04a3a56c-60117a19] found.
Track [ CRC | V2 ] Status
01 [84e19e89|158f7bd8] (07+05/12) Accurately ripped
02 [3db056c3|01c9df38] (06+05/11) Accurately ripped
03 [a2712170|7e728331] (07+05/12) Accurately ripped
04 [4c5ab40c|3e83a4a1] (07+05/12) Accurately ripped
05 [eb377567|379dd7a4] (07+05/12) Accurately ripped
06 [7321684b|bf185c9d] (07+05/12) Accurately ripped
07 [6359e4bc|8eea7257] (07+05/12) Accurately ripped
08 [94e5fd4e|cd7172c6] (07+05/12) Accurately ripped
09 [b6f32381|4b903332] (07+05/12) Accurately ripped
10 [e328e270|8287d45a] (07+05/12) Accurately ripped
11 [4e6747fc|f1dc106b] (07+05/12) Accurately ripped
12 [5389889a|713a0fad] (07+05/12) Accurately ripped
13 [34b371cc|b5eae112] (07+05/12) Accurately ripped
14 [cbd24c3c|e265ac43] (07+05/12) Accurately ripped
15 [750a40be|d8d6bf5c] (07+05/12) Accurately ripped
16 [7f57a912|fc1b0704] (07+05/12) Accurately ripped
17 [3bb3fcb8|0c04d9d2] (07+05/12) Accurately ripped
18 [84d32244|cb62579f] (07+05/12) Accurately ripped
19 [781fe58a|77348771] (07+05/12) Accurately ripped
20 [cfd71050|f3275560] (07+05/12) Accurately ripped
21 [353d753f|d722f2fc] (07+05/12) Accurately ripped
22 [93ae09a9|509b5591] (07+05/12) Accurately ripped
23 [9505979f|52dce38b] (07+05/12) Accurately ripped
24 [46834d1e|5e3be0a9] (07+05/12) Accurately ripped
25 [e6a0c245|861627d2] (07+05/12) Accurately ripped

Track Peak [ CRC32 ] [W/O NULL] [ LOG ]
– 94,3 [E8DE9962] [B7D0B273]
01 84,0 [BDB4124C] [C3A04E48] CRC32
02 94,2 [971B877E] [FDC97FB3] CRC32
03 94,3 [4215E336] [6A5B6C37] CRC32
04 84,0 [3650A844] [754C7281] CRC32
05 94,2 [1B4572C7] [CA90BAE9] CRC32
06 84,0 [31D30CF2] [0386A90E] CRC32
07 84,0 [02AA553B] [05012E37] CRC32
08 84,0 [8E925F99] [26670EBE] CRC32
09 94,3 [DA3B8964] [F30B97DA] CRC32
10 94,3 [FE292C9C] [A2B3EE48] CRC32
11 84,0 [4FF9ED6E] [1A623065] CRC32
12 94,3 [6942B42B] [4205674E] CRC32
13 84,0 [17D7AAF3] [66AC243E] CRC32
14 84,0 [D29E7EBC] [261636D1] CRC32
15 94,2 [57A04316] [66013A97] CRC32
16 84,0 [6FF822B1] [E2111240] CRC32
17 94,3 [3FC17F18] [B4131DF7] CRC32
18 94,3 [27E03FB8] [9A80982B] CRC32
19 82,7 [65918BCD] [CF50F991] CRC32
20 94,2 [1575FA41] [F839370A] CRC32
21 94,2 [67820D35] [BF734D52] CRC32
22 94,3 [AF5BDB28] [FD6BCF65] CRC32
23 94,3 [2E730FB1] [E28CE59A] CRC32
24 51,0 [27069023] [5BB0252D] CRC32
25 50,3 [4C11C2D7] [2B576097] CRC32

Exact Audio Copy V0.99 prebeta 5 from 4. May 2009

EAC extraction logfile from 30. January 2011, 16:04

Benny Carter / The Music Master

Used drive : TSSTcorpCDDVDW SH-S203N Adapter: 0 ID: 2

Read mode : Secure
Utilize accurate stream : Yes
Defeat audio cache : Yes
Make use of C2 pointers : No

Read offset correction : 6
Overread into Lead-In and Lead-Out : No
Fill up missing offset samples with silence : Yes
Delete leading and trailing silent blocks : No
Null samples used in CRC calculations : Yes
Used interface : Installed external ASPI interface
Gap handling : Appended to previous track

Used output format : User Defined Encoder
Selected bitrate : 768 kBit/s
Quality : High
Add ID3 tag : No
Command line compressor : C:\Program Files\Exact Audio Copy\Flac\flac.exe
Additional command line options : -8 -V -T "ARTIST=%a" -T "TITLE=%t" -T "ALBUM=%g" -T "DATE=%y" -T "TRACKNUMBER=%n" -T "TOTALTRACKS=%x" -T "GENRE=%m" -T "ALBUMARTIST=%v" -T "ALBUM ARTIST=%v" -T "COMMENT=EAC V0.99 pb5, Secure Mode, Test & Copy, AccurateRip,


TOC of the extracted CD

Track | Start | Length | Start sector | End sector
––––––––––––––––––––––––––––-
1 | 0:00.00 | 3:06.74 | 0 | 14023
2 | 3:06.74 | 2:39.11 | 14024 | 25959
3 | 5:46.10 | 4:15.02 | 25960 | 45086
4 | 10:01.12 | 3:09.20 | 45087 | 59281
5 | 13:10.32 | 3:22.72 | 59282 | 74503
6 | 16:33.29 | 2:46.22 | 74504 | 86975
7 | 19:19.51 | 3:20.60 | 86976 | 102035
8 | 22:40.36 | 3:10.39 | 102036 | 116324
9 | 25:51.00 | 3:05.08 | 116325 | 130207
10 | 28:56.08 | 2:48.46 | 130208 | 142853
11 | 31:44.54 | 2:57.25 | 142854 | 156153
12 | 34:42.04 | 3:03.69 | 156154 | 169947
13 | 37:45.73 | 3:04.23 | 169948 | 183770
14 | 40:50.21 | 3:23.62 | 183771 | 199057
15 | 44:14.08 | 2:54.26 | 199058 | 212133
16 | 47:08.34 | 3:05.69 | 212134 | 226077
17 | 50:14.28 | 3:06.09 | 226078 | 240036
18 | 53:20.37 | 2:40.49 | 240037 | 252085
19 | 56:01.11 | 2:56.13 | 252086 | 265298
20 | 58:57.24 | 2:54.54 | 265299 | 278402
21 | 61:52.03 | 3:00.35 | 278403 | 291937
22 | 64:52.38 | 2:51.05 | 291938 | 304767
23 | 67:43.43 | 3:09.61 | 304768 | 319003
24 | 70:53.29 | 2:47.33 | 319004 | 331561
25 | 73:40.62 | 3:07.58 | 331562 | 345644


Track 1

Filename J:\New Rips\Benny Carter - The Music Master (2004) [FLAC] {Properbox 68 rec 1930-52}\disc 3of4\01 - OK For Baby.wav

Pre-gap length 0:00:02.00

Peak level 94.3 %
Track quality 100.0 %
Test CRC 8138F262
Copy CRC 8138F262
Accurately ripped (confidence 6) [AEAAF562]
Copy OK

Track 2

Filename J:\New Rips\Benny Carter - The Music Master (2004) [FLAC] {Properbox 68 rec 1930-52}\disc 3of4\02 - Smack.wav

Pre-gap length 0:00:02.54

Peak level 84.0 %
Track quality 100.0 %
Test CRC 16BD4BD8
Copy CRC 16BD4BD8
Accurately ripped (confidence 6) [82B464EF]
Copy OK

Track 3

Filename J:\New Rips\Benny Carter - The Music Master (2004) [FLAC] {Properbox 68 rec 1930-52}\disc 3of4\03 - I Can't Believe That You're In Love With Me.wav

Pre-gap length 0:00:02.54

Peak level 94.3 %
Track quality 99.9 %
Test CRC 7BC2853E
Copy CRC 7BC2853E
Accurately ripped (confidence 6) [C13E96B4]
Copy OK

Track 4

Filename J:\New Rips\Benny Carter - The Music Master (2004) [FLAC] {Properbox 68 rec 1930-52}\disc 3of4\04 - Boogie Woogie Sugar Blues.wav

Pre-gap length 0:00:02.54

Peak level 84.0 %
Track quality 99.9 %
Test CRC 1BED14EF
Copy CRC 1BED14EF
Accurately ripped (confidence 6) [FABF5FC7]
Copy OK

Track 5

Filename J:\New Rips\Benny Carter - The Music Master (2004) [FLAC] {Properbox 68 rec 1930-52}\disc 3of4\05 - All Of Me.wav

Pre-gap length 0:00:02.54

Peak level 74.9 %
Track quality 100.0 %
Test CRC 807ECE1C
Copy CRC 807ECE1C
Accurately ripped (confidence 6) [D8AD5C9F]
Copy OK

Track 6

Filename J:\New Rips\Benny Carter - The Music Master (2004) [FLAC] {Properbox 68 rec 1930-52}\disc 3of4\06 - Cuddle Up Huddle Up.wav

Pre-gap length 0:00:02.54

Peak level 84.0 %
Track quality 100.0 %
Test CRC FEBEC08B
Copy CRC FEBEC08B
Accurately ripped (confidence 6) [07D56E01]
Copy OK

Track 7

Filename J:\New Rips\Benny Carter - The Music Master (2004) [FLAC] {Properbox 68 rec 1930-52}\disc 3of4\07 - Midnight.wav

Pre-gap length 0:00:02.54

Peak level 94.3 %
Track quality 100.0 %
Test CRC 775D7CA4
Copy CRC 775D7CA4
Accurately ripped (confidence 6) [E04CE162]
Copy OK

Track 8

Filename J:\New Rips\Benny Carter - The Music Master (2004) [FLAC] {Properbox 68 rec 1930-52}\disc 3of4\08 - Lullaby To A Dream.wav

Pre-gap length 0:00:02.54

Peak level 94.2 %
Track quality 100.0 %
Test CRC 4CEB87FC
Copy CRC 4CEB87FC
Accurately ripped (confidence 6) [5F473D6C]
Copy OK

Track 9

Filename J:\New Rips\Benny Carter - The Music Master (2004) [FLAC] {Properbox 68 rec 1930-52}\disc 3of4\09 - What A Difference A Day Made.wav

Pre-gap length 0:00:02.54

Peak level 94.2 %
Track quality 100.0 %
Test CRC A2EB7990
Copy CRC A2EB7990
Accurately ripped (confidence 6) [29BFD97B]
Copy OK

Track 10

Filename J:\New Rips\Benny Carter - The Music Master (2004) [FLAC] {Properbox 68 rec 1930-52}\disc 3of4\10 - Sunday.wav

Pre-gap length 0:00:02.54

Peak level 94.2 %
Track quality 100.0 %
Test CRC 5F6FE53B
Copy CRC 5F6FE53B
Accurately ripped (confidence 6) [191B3505]
Copy OK

Track 11

Filename J:\New Rips\Benny Carter - The Music Master (2004) [FLAC] {Properbox 68 rec 1930-52}\disc 3of4\11 - Back Bay Boogie.wav

Pre-gap length 0:00:02.54

Peak level 94.3 %
Track quality 99.9 %
Test CRC 096E3A70
Copy CRC 096E3A70
Accurately ripped (confidence 6) [239FD90D]
Copy OK

Track 12

Filename J:\New Rips\Benny Carter - The Music Master (2004) [FLAC] {Properbox 68 rec 1930-52}\disc 3of4\12 - Poinciana.wav

Pre-gap length 0:00:02.54

Peak level 94.2 %
Track quality 100.0 %
Test CRC A21C8FB7
Copy CRC A21C8FB7
Accurately ripped (confidence 6) [DDD8804A]
Copy OK

Track 13

Filename J:\New Rips\Benny Carter - The Music Master (2004) [FLAC] {Properbox 68 rec 1930-52}\disc 3of4\13 - Love For Sale.wav

Pre-gap length 0:00:02.54

Peak level 84.0 %
Track quality 99.9 %
Test CRC 602A0E61
Copy CRC 602A0E61
Accurately ripped (confidence 6) [72A55FBB]
Copy OK

Track 14

Filename J:\New Rips\Benny Carter - The Music Master (2004) [FLAC] {Properbox 68 rec 1930-52}\disc 3of4\14 - I Can't Escape From You.wav

Pre-gap length 0:00:02.54

Peak level 94.2 %
Track quality 100.0 %
Test CRC A9F7C83A
Copy CRC A9F7C83A
Accurately ripped (confidence 6) [47EDE3E6]
Copy OK

Track 15

Filename J:\New Rips\Benny Carter - The Music Master (2004) [FLAC] {Properbox 68 rec 1930-52}\disc 3of4\15 - I Can't Get Started.wav

Pre-gap length 0:00:02.54

Peak level 83.7 %
Track quality 99.9 %
Test CRC BC3B4521
Copy CRC BC3B4521
Accurately ripped (confidence 6) [C6108035]
Copy OK

Track 16

Filename J:\New Rips\Benny Carter - The Music Master (2004) [FLAC] {Properbox 68 rec 1930-52}\disc 3of4\16 - I Surrender Dear.wav

Pre-gap length 0:00:02.54

Peak level 84.0 %
Track quality 100.0 %
Test CRC A681080A
Copy CRC A681080A
Accurately ripped (confidence 6) [183D5F19]
Copy OK

Track 17

Filename J:\New Rips\Benny Carter - The Music Master (2004) [FLAC] {Properbox 68 rec 1930-52}\disc 3of4\17 - Malibu.wav

Pre-gap length 0:00:02.54

Peak level 84.0 %
Track quality 100.0 %
Test CRC 1E5AC0E5
Copy CRC 1E5AC0E5
Accurately ripped (confidence 6) [17BBF66B]
Copy OK

Track 18

Filename J:\New Rips\Benny Carter - The Music Master (2004) [FLAC] {Properbox 68 rec 1930-52}\disc 3of4\18 - Forever Blues.wav

Pre-gap length 0:00:02.54

Peak level 94.3 %
Track quality 100.0 %
Test CRC 5BE383A7
Copy CRC 5BE383A7
Accurately ripped (confidence 6) [98686202]
Copy OK

Track 19

Filename J:\New Rips\Benny Carter - The Music Master (2004) [FLAC] {Properbox 68 rec 1930-52}\disc 3of4\19 - Jump Call.wav

Pre-gap length 0:00:02.54

Peak level 94.3 %
Track quality 100.0 %
Test CRC 6E243DDC
Copy CRC 6E243DDC
Accurately ripped (confidence 6) [704C5F2A]
Copy OK

Track 20

Filename J:\New Rips\Benny Carter - The Music Master (2004) [FLAC] {Properbox 68 rec 1930-52}\disc 3of4\20 - Looking For A Boy.wav

Pre-gap length 0:00:02.54

Peak level 94.2 %
Track quality 100.0 %
Test CRC 9D649F6A
Copy CRC 9D649F6A
Accurately ripped (confidence 6) [FBA10735]
Copy OK

Track 21

Filename J:\New Rips\Benny Carter - The Music Master (2004) [FLAC] {Properbox 68 rec 1930-52}\disc 3of4\21 - Rose Room.wav

Pre-gap length 0:00:02.54

Peak level 94.2 %
Track quality 100.0 %
Test CRC B3B68150
Copy CRC B3B68150
Accurately ripped (confidence 6) [22145618]
Copy OK

Track 22

Filename J:\New Rips\Benny Carter - The Music Master (2004) [FLAC] {Properbox 68 rec 1930-52}\disc 3of4\22 - The Moon Is Low.wav

Pre-gap length 0:00:02.54

Peak level 94.2 %
Track quality 100.0 %
Test CRC 8F6B78EF
Copy CRC 8F6B78EF
Accurately ripped (confidence 6) [889E2E33]
Copy OK

Track 23

Filename J:\New Rips\Benny Carter - The Music Master (2004) [FLAC] {Properbox 68 rec 1930-52}\disc 3of4\23 - Stairway To The Stars.wav

Pre-gap length 0:00:02.54

Peak level 94.0 %
Track quality 100.0 %
Test CRC D90FC1CC
Copy CRC D90FC1CC
Accurately ripped (confidence 6) [120D271D]
Copy OK

Track 24

Filename J:\New Rips\Benny Carter - The Music Master (2004) [FLAC] {Properbox 68 rec 1930-52}\disc 3of4\24 - Bye Bye Blues.wav

Pre-gap length 0:00:02.54

Peak level 61.6 %
Track quality 100.0 %
Test CRC EA5B5054
Copy CRC EA5B5054
Accurately ripped (confidence 6) [7A543F33]
Copy OK

Track 25

Filename J:\New Rips\Benny Carter - The Music Master (2004) [FLAC] {Properbox 68 rec 1930-52}\disc 3of4\25 - I Don't Know Why I Love You Like I Do.wav

Pre-gap length 0:00:02.54

Peak level 84.0 %
Track quality 100.0 %
Test CRC 32641F7E
Copy CRC 32641F7E
Accurately ripped (confidence 6) [3CE0E522]
Copy OK


All tracks accurately ripped

No errors occurred

End of status report

[CUETools log; Date: 14.07.2018 11:57:12; Version: 2.1.4]
[CTDB TOCID: pbvWcx_l3RWGfaaKEIYJy4N7hxY-] found.
Track | CTDB Status
1 | (5/5) Accurately ripped
2 | (5/5) Accurately ripped
3 | (5/5) Accurately ripped
4 | (5/5) Accurately ripped
5 | (5/5) Accurately ripped
6 | (5/5) Accurately ripped
7 | (5/5) Accurately ripped
8 | (5/5) Accurately ripped
9 | (5/5) Accurately ripped
10 | (5/5) Accurately ripped
11 | (5/5) Accurately ripped
12 | (5/5) Accurately ripped
13 | (5/5) Accurately ripped
14 | (5/5) Accurately ripped
15 | (5/5) Accurately ripped
16 | (5/5) Accurately ripped
17 | (5/5) Accurately ripped
18 | (5/5) Accurately ripped
19 | (5/5) Accurately ripped
20 | (5/5) Accurately ripped
21 | (5/5) Accurately ripped
22 | (5/5) Accurately ripped
23 | (5/5) Accurately ripped
24 | (5/5) Accurately ripped
25 | (5/5) Accurately ripped
[AccurateRip ID: 0045c7d5-04e16997-6d120019] found.
Track [ CRC | V2 ] Status
01 [aeaaf562|d9671cde] (07+05/12) Accurately ripped
02 [82b464ef|b83b1a38] (07+05/12) Accurately ripped
03 [c13e96b4|80a89805] (07+05/12) Accurately ripped
04 [fabf5fc7|10e84735] (07+05/12) Accurately ripped
05 [d8ad5c9f|3764d1ed] (07+05/12) Accurately ripped
06 [07d56e01|21a01551] (07+05/12) Accurately ripped
07 [e04ce162|bdb41116] (07+05/12) Accurately ripped
08 [5f473d6c|6e6f3dbe] (07+05/12) Accurately ripped
09 [29bfd97b|3e82e1d8] (07+05/12) Accurately ripped
10 [191b3505|918bbe60] (07+05/12) Accurately ripped
11 [239fd90d|7dd0b6b8] (07+05/12) Accurately ripped
12 [ddd8804a|8c859533] (07+05/12) Accurately ripped
13 [72a55fbb|c548ab0b] (07+05/12) Accurately ripped
14 [47ede3e6|ce241f10] (07+05/12) Accurately ripped
15 [c6108035|7d5abadd] (07+05/12) Accurately ripped
16 [183d5f19|8d20ec02] (07+05/12) Accurately ripped
17 [17bbf66b|94f2ddba] (07+05/12) Accurately ripped
18 [98686202|fecfdafb] (07+05/12) Accurately ripped
19 [704c5f2a|873a2a93] (07+05/12) Accurately ripped
20 [fba10735|4ab36626] (07+05/12) Accurately ripped
21 [22145618|54698335] (07+05/12) Accurately ripped
22 [889e2e33|6470c23d] (07+05/12) Accurately ripped
23 [120d271d|655c7476] (07+05/12) Accurately ripped
24 [7a543f33|94893197] (07+05/12) Accurately ripped
25 [3ce0e522|d4695de6] (07+05/12) Accurately ripped

Track Peak [ CRC32 ] [W/O NULL] [ LOG ]
– 94,3 [5FE8A43B] [0603F41F]
01 94,3 [8138F262] [1E59FADB] CRC32
02 84,0 [16BD4BD8] [BEF9AB88] CRC32
03 94,3 [7BC2853E] [E4DA92B9] CRC32
04 84,0 [1BED14EF] [CA4CA633] CRC32
05 74,9 [807ECE1C] [1E335C1B] CRC32
06 84,0 [FEBEC08B] [813A97B6] CRC32
07 94,3 [775D7CA4] [7BEB2823] CRC32
08 94,2 [4CEB87FC] [B63F172B] CRC32
09 94,2 [A2EB7990] [FB53164F] CRC32
10 94,2 [5F6FE53B] [E6D7E918] CRC32
11 94,3 [096E3A70] [E96B4210] CRC32
12 94,2 [A21C8FB7] [E44041C1] CRC32
13 84,0 [602A0E61] [E04B9926] CRC32
14 94,2 [A9F7C83A] [86A9DA27] CRC32
15 83,7 [BC3B4521] [6862741D] CRC32
16 84,0 [A681080A] [61DD3BCE] CRC32
17 84,0 [1E5AC0E5] [2BE477A1] CRC32
18 94,3 [5BE383A7] [81BF6092] CRC32
19 94,3 [6E243DDC] [BD9DF3EE] CRC32
20 94,2 [9D649F6A] [454829BB] CRC32
21 94,2 [B3B68150] [C18673F7] CRC32
22 94,2 [8F6B78EF] [BDB2BA1A] CRC32
23 94,0 [D90FC1CC] [035E18F9] CRC32
24 61,6 [EA5B5054] [0F2D17E4] CRC32
25 84,0 [32641F7E] [254C6D18] CRC32

Exact Audio Copy V0.99 prebeta 5 from 4. May 2009

EAC extraction logfile from 30. January 2011, 18:17

Benny Carter / The Music Master

Used drive : TSSTcorpCDDVDW SH-S203N Adapter: 0 ID: 2

Read mode : Secure
Utilize accurate stream : Yes
Defeat audio cache : Yes
Make use of C2 pointers : No

Read offset correction : 6
Overread into Lead-In and Lead-Out : No
Fill up missing offset samples with silence : Yes
Delete leading and trailing silent blocks : No
Null samples used in CRC calculations : Yes
Used interface : Installed external ASPI interface
Gap handling : Appended to previous track

Used output format : User Defined Encoder
Selected bitrate : 768 kBit/s
Quality : High
Add ID3 tag : No
Command line compressor : C:\Program Files\Exact Audio Copy\Flac\flac.exe
Additional command line options : -8 -V -T "ARTIST=%a" -T "TITLE=%t" -T "ALBUM=%g" -T "DATE=%y" -T "TRACKNUMBER=%n" -T "TOTALTRACKS=%x" -T "GENRE=%m" -T "ALBUMARTIST=%v" -T "ALBUM ARTIST=%v" -T "COMMENT=EAC V0.99 pb5, Secure Mode, Test & Copy, AccurateRip,


TOC of the extracted CD

Track | Start | Length | Start sector | End sector
––––––––––––––––––––––––––––-
1 | 0:00.00 | 2:54.69 | 0 | 13118
2 | 2:54.69 | 2:50.20 | 13119 | 25888
3 | 5:45.14 | 2:41.30 | 25889 | 37993
4 | 8:26.44 | 3:15.15 | 37994 | 52633
5 | 11:41.59 | 2:38.03 | 52634 | 64486
6 | 14:19.62 | 3:03.36 | 64487 | 78247
7 | 17:23.23 | 3:18.71 | 78248 | 93168
8 | 20:42.19 | 3:04.39 | 93169 | 107007
9 | 23:46.58 | 14:22.12 | 107008 | 171669
10 | 38:08.70 | 15:26.02 | 171670 | 241121
11 | 53:34.72 | 13:14.53 | 241122 | 300724
12 | 66:49.50 | 3:43.06 | 300725 | 317455
13 | 70:32.56 | 2:59.20 | 317456 | 330900
14 | 73:32.01 | 2:57.62 | 330901 | 344237
15 | 76:29.63 | 3:08.50 | 344238 | 358387


Track 1

Filename J:\New Rips\Benny Carter - The Music Master (2004) [FLAC] {Properbox 68 rec 1930-52}\disc 4of4\01 - Moonglow.wav

Pre-gap length 0:00:02.00

Peak level 94.3 %
Track quality 100.0 %
Test CRC F0287309
Copy CRC F0287309
Accurately ripped (confidence 5) [A5074C54]
Copy OK

Track 2

Filename J:\New Rips\Benny Carter - The Music Master (2004) [FLAC] {Properbox 68 rec 1930-52}\disc 4of4\02 - Give Me Something To Remember You By.wav

Pre-gap length 0:00:02.54

Peak level 94.2 %
Track quality 100.0 %
Test CRC CDD3D6AD
Copy CRC CDD3D6AD
Accurately ripped (confidence 5) [9628366A]
Copy OK

Track 3

Filename J:\New Rips\Benny Carter - The Music Master (2004) [FLAC] {Properbox 68 rec 1930-52}\disc 4of4\03 - Lady Be Good.wav

Pre-gap length 0:00:02.54

Peak level 94.3 %
Track quality 100.0 %
Test CRC DF615BD1
Copy CRC DF615BD1
Accurately ripped (confidence 5) [44331B44]
Copy OK

Track 4

Filename J:\New Rips\Benny Carter - The Music Master (2004) [FLAC] {Properbox 68 rec 1930-52}\disc 4of4\04 - Deep Purple.wav

Pre-gap length 0:00:02.54

Peak level 94.2 %
Track quality 100.0 %
Test CRC 911A6FA1
Copy CRC 911A6FA1
Accurately ripped (confidence 5) [9E7F9B6E]
Copy OK

Track 5

Filename J:\New Rips\Benny Carter - The Music Master (2004) [FLAC] {Properbox 68 rec 1930-52}\disc 4of4\05 - Sweet Georgia Brown.wav

Pre-gap length 0:00:02.54

Peak level 93.1 %
Track quality 99.9 %
Test CRC 72BC0FA4
Copy CRC 72BC0FA4
Accurately ripped (confidence 5) [6D429ABA]
Copy OK

Track 6

Filename J:\New Rips\Benny Carter - The Music Master (2004) [FLAC] {Properbox 68 rec 1930-52}\disc 4of4\06 - Out Of My Way.wav

Pre-gap length 0:00:02.54

Peak level 94.3 %
Track quality 100.0 %
Test CRC 84098175
Copy CRC 84098175
Accurately ripped (confidence 5) [6C30C5E9]
Copy OK

Track 7

Filename J:\New Rips\Benny Carter - The Music Master (2004) [FLAC] {Properbox 68 rec 1930-52}\disc 4of4\07 - What'll It Be.wav

Pre-gap length 0:00:02.54

Peak level 91.2 %
Track quality 100.0 %
Test CRC 6F01BF3C
Copy CRC 6F01BF3C
Accurately ripped (confidence 5) [225FD12B]
Copy OK

Track 8

Filename J:\New Rips\Benny Carter - The Music Master (2004) [FLAC] {Properbox 68 rec 1930-52}\disc 4of4\08 - Cadillac Slim.wav

Pre-gap length 0:00:02.54

Peak level 94.2 %
Track quality 100.0 %
Test CRC 473A3F81
Copy CRC 473A3F81
Accurately ripped (confidence 5) [3486C4B6]
Copy OK

Track 9

Filename J:\New Rips\Benny Carter - The Music Master (2004) [FLAC] {Properbox 68 rec 1930-52}\disc 4of4\09 - Jam Blues.wav

Pre-gap length 0:00:02.54

Peak level 94.2 %
Track quality 100.0 %
Test CRC 0BBD3607
Copy CRC 0BBD3607
Accurately ripped (confidence 5) [03EA4AB7]
Copy OK

Track 10

Filename J:\New Rips\Benny Carter - The Music Master (2004) [FLAC] {Properbox 68 rec 1930-52}\disc 4of4\10 - What Is This Thing Called Love.wav

Pre-gap length 0:00:02.54

Peak level 94.2 %
Track quality 100.0 %
Test CRC DA5CD8D7
Copy CRC DA5CD8D7
Accurately ripped (confidence 5) [EA8E1705]
Copy OK

Track 11

Filename J:\New Rips\Benny Carter - The Music Master (2004) [FLAC] {Properbox 68 rec 1930-52}\disc 4of4\11 - Funky Blues.wav

Pre-gap length 0:00:02.54

Peak level 94.2 %
Track quality 100.0 %
Test CRC F69C8219
Copy CRC F69C8219
Accurately ripped (confidence 5) [56D23A33]
Copy OK

Track 12

Filename J:\New Rips\Benny Carter - The Music Master (2004) [FLAC] {Properbox 68 rec 1930-52}\disc 4of4\12 - Isn't It Romantic.wav

Pre-gap length 0:00:02.54

Peak level 94.3 %
Track quality 100.0 %
Test CRC 89D2623F
Copy CRC 89D2623F
Accurately ripped (confidence 5) [C12158FC]
Copy OK

Track 13

Filename J:\New Rips\Benny Carter - The Music Master (2004) [FLAC] {Properbox 68 rec 1930-52}\disc 4of4\13 - Gone With The Wind.wav

Pre-gap length 0:00:02.54

Peak level 94.2 %
Track quality 100.0 %
Test CRC 83FA67C9
Copy CRC 83FA67C9
Accurately ripped (confidence 5) [AA10527D]
Copy OK

Track 14

Filename J:\New Rips\Benny Carter - The Music Master (2004) [FLAC] {Properbox 68 rec 1930-52}\disc 4of4\14 - I Got It Bad And That Ain't Good.wav

Pre-gap length 0:00:02.54

Peak level 84.0 %
Track quality 100.0 %
Test CRC 5D73627E
Copy CRC 5D73627E
Accurately ripped (confidence 5) [E91F8524]
Copy OK

Track 15

Filename J:\New Rips\Benny Carter - The Music Master (2004) [FLAC] {Properbox 68 rec 1930-52}\disc 4of4\15 - Key Largo.wav

Pre-gap length 0:00:02.54

Peak level 94.2 %
Track quality 100.0 %
Test CRC 6B8CCC62
Copy CRC 6B8CCC62
Accurately ripped (confidence 5) [A418D535]
Copy OK


All tracks accurately ripped

No errors occurred

End of status report

[CUETools log; Date: 14.07.2018 11:57:50; Version: 2.1.4]
[CTDB TOCID: QbhGlt5PRflHcRfBiwOfJTD57Sc-] found.
Track | CTDB Status
1 | (5/5) Accurately ripped
2 | (5/5) Accurately ripped
3 | (5/5) Accurately ripped
4 | (5/5) Accurately ripped
5 | (5/5) Accurately ripped
6 | (5/5) Accurately ripped
7 | (5/5) Accurately ripped
8 | (5/5) Accurately ripped
9 | (5/5) Accurately ripped
10 | (5/5) Accurately ripped
11 | (5/5) Accurately ripped
12 | (5/5) Accurately ripped
13 | (5/5) Accurately ripped
14 | (5/5) Accurately ripped
15 | (5/5) Accurately ripped
[AccurateRip ID: 0026b658-01d5ed8c-b412aa0f] found.
Track [ CRC | V2 ] Status
01 [a5074c54|8dc1eb3e] (06+05/11) Accurately ripped
02 [9628366a|872c2702] (06+05/11) Accurately ripped
03 [44331b44|567bf3e7] (06+05/11) Accurately ripped
04 [9e7f9b6e|af7af305] (06+05/11) Accurately ripped
05 [6d429aba|79a032c2] (06+05/11) Accurately ripped
06 [6c30c5e9|5c9c8509] (06+05/11) Accurately ripped
07 [225fd12b|6f3461c9] (06+05/11) Accurately ripped
08 [3486c4b6|f091bcad] (06+05/11) Accurately ripped
09 [03ea4ab7|48c7f8ab] (06+05/11) Accurately ripped
10 [ea8e1705|15c020d3] (06+05/11) Accurately ripped
11 [56d23a33|5336f4ce] (06+05/11) Accurately ripped
12 [c12158fc|723249da] (06+05/11) Accurately ripped
13 [aa10527d|974b2af7] (06+05/11) Accurately ripped
14 [e91f8524|3d1957de] (06+05/11) Accurately ripped
15 [a418d535|4b89870b] (06+05/11) Accurately ripped

Track Peak [ CRC32 ] [W/O NULL] [ LOG ]
– 94,3 [2F837D79] [0639EFD9]
01 94,3 [F0287309] [C7C4A99A] CRC32
02 94,2 [CDD3D6AD] [A931097B] CRC32
03 94,3 [DF615BD1] [DACEE812] CRC32
04 94,2 [911A6FA1] [3104B615] CRC32
05 93,1 [72BC0FA4] [24FCC1AE] CRC32
06 94,3 [84098175] [869268BC] CRC32
07 91,2 [6F01BF3C] [4872EEC2] CRC32
08 94,2 [473A3F81] [0A67DF42] CRC32
09 94,2 [0BBD3607] [101E2847] CRC32
10 94,2 [DA5CD8D7] [704B65CC] CRC32
11 94,2 [F69C8219] [C96E5834] CRC32
12 94,3 [89D2623F] [2F8AD966] CRC32
13 94,2 [83FA67C9] [D302AC9E] CRC32
14 84,0 [5D73627E] [4787A817] CRC32
15 94,2 [6B8CCC62] [316FF3DE] CRC32

Thanks to Flacmonster

See also: