Subcategories
Tags
Language
Tags

Christian Thielemann, Wiener Philharmoniker - Beethoven: Symphonies Nos. 7-9 (2010) [Blu-ray]

Posted By: Vilboa
Christian Thielemann, Wiener Philharmoniker - Beethoven: Symphonies Nos. 7-9 (2010) [Blu-ray]

Christian Thielemann, Wiener Philharmoniker - Beethoven: Symphonies Nos. 7-9 (2010) [Blu-ray]
BluRay | BDMV | MPEG-4 AVC Video / 12463 kbps / 1080i / 29,970 fps | 155 min+169 min (bonus) | 41,2 Gb
Audio1: German / LPCM Audio / 2.0 / 48 kHz | Audio2: DTS-HD Master Audio / 5.0 / 48 kHz / 3836 kbps / 24-bit

BluRay-rip | AVC | MKV 1920x1080 / 6215 kbps / 29,970 fps | 155 min | 8,43 Gb
Audio: German / DTS / 5ch / 48.0 KHz / 24 bits
Classical | C Major | Sub: German, English, French, Italian, Spanish, Korean, Chinese

This is a Beethoven Symphonies Cycle of the 21st century! Christian Thielemann and the Vienna Philharmonic Orchestra perform Beethoven Symphonies Nos. 1 – 9 incl. and each DVD includes a one-hour-long documentary for each symphony.
Includes an hour-long documentary for each symphony where Maestro Thielemann and Joachim Kaiser (the most famous German music critic) discuss and analyze in an entertaining conversational exchange Thielemann’s interpretation, complemented by excerpts from rehearsals as well as by comparisons of Beethoven cycles with Karajan, Bernstein etc. – no aspect of Beethoven’s symphonic œuvre will remain unaffected!
The Documentaries include legendary footage of performances from Karajan, Bernstein, Böhm, Järvi etc.
The performances, the Vienna Philharmonic on top form, can't help sounding wonderful…oddly, it is the discussions that are the most enjoyable elements in this ambitious set. — BBC Music Magazine

Cast:
Annette Dasch (soprano)
Mihoko Fujimura (alto)
Piotr Beczala (tenor)
Georg Zeppenfeld (bass)
Wiener Singverein
Wiener Philharmoniker
Conductor - Christian Thielemann

Track List:
Symphony No. 7 in A major, Op. 92 (1811-1812)
Symphony No. 8 in F major, Op. 93 (1812)
Symphony No. 9 in D minor, Op.125 Choral (1817-1824)
Bonus: Discovering Beethoven


Disc Title: BEETHOVEN 7_9
Disc Size: 44 249 216 992 bytes
Protection: AACS
BD-Java: No
Playlist: 00000.MPLS
Size: 23 138 304 000 bytes
Length: 2:35:56.747
Total Bitrate: 19,78 Mbps
Video: MPEG-4 AVC Video / 12463 kbps / 1080i / 29,970 fps / 16:9 / High Profile 4.1
Audio: Undetermined / LPCM Audio / 2.0 / 48 kHz / 2304 kbps / 24-bit
Audio: Undetermined / DTS-HD Master Audio / 5.0 / 48 kHz / 3836 kbps / 24-bit (DTS Core: 5.0 / 48 kHz / 1509 kbps / 24-bit)
Subtitle: German / 0,929 kbps
Subtitle: English / 0,932 kbps
Subtitle: French / 0,940 kbps
Subtitle: Italian / 0,891 kbps
Subtitle: Spanish / 1,052 kbps
Subtitle: Korean / 0,940 kbps
Subtitle: Chinese / 0,682 kbps


General
Unique ID : 175162333287463082641014088109800675781 (0x83C709CCC3AD4D729160664EA3DDD9C5)
Complete name : C:\Symphony_9.mkv
Format : Matroska
Format version : Version 2
File size : 4.35 GiB
Duration : 1h 20mn
Overall bit rate : 7 769 Kbps
Movie name : Symphony_9
Encoded date : UTC 2017-10-21 12:41:10
Writing application : DVDFab 9.1.6.8
Writing library : libebml v0.7.8 + libmatroska v0.8.1

Video
ID : 1
Format : AVC
Format/Info : Advanced Video Codec
Format profile : High@L4.1
Format settings, CABAC : Yes
Format settings, ReFrames : 2 frames
Codec ID : V_MPEG4/ISO/AVC
Duration : 1h 20mn
Bit rate : 6 215 Kbps
Width : 1 920 pixels
Height : 1 080 pixels
Display aspect ratio : 16:9
Frame rate mode : Constant
Frame rate : 29.970 fps
Color space : YUV
Chroma subsampling : 4:2:0
Bit depth : 8 bits
Scan type : Progressive
Bits/(Pixel*Frame) : 0.100
Stream size : 3.42 GiB (79%)
Writing library : x264 core 142
Encoding settings : cabac=1 / ref=1 / deblock=1:-1:-1 / analyse=0x3:0 / me=hex / subme=5 / psy=0 / mixed_ref=0 / me_range=16 / chroma_me=1 / trellis=0 / 8x8dct=1 / cqm=0 / deadzone=21,11 / fast_pskip=1 / chroma_qp_offset=0 / threads=8 / lookahead_threads=2 / sliced_threads=0 / nr=0 / decimate=1 / interlaced=0 / bluray_compat=0 / constrained_intra=0 / bframes=2 / b_pyramid=0 / b_adapt=1 / b_bias=0 / direct=1 / weightb=1 / open_gop=0 / weightp=0 / keyint=24 / keyint_min=13 / scenecut=40 / intra_refresh=0 / rc=abr / mbtree=0 / bitrate=6215 / ratetol=1.0 / qcomp=0.60 / qpmin=0 / qpmax=69 / qpstep=4 / ip_ratio=1.40 / pb_ratio=1.30 / aq=1:1.00
Default : Yes
Forced : No
Color primaries : BT.709
Transfer characteristics : BT.709
Matrix coefficients : BT.709
Color range : Limited

Audio
ID : 2
Format : DTS
Format/Info : Digital Theater Systems
Mode : 16
Format settings, Endianness : Big
Codec ID : A_DTS
Duration : 1h 20mn
Bit rate mode : Constant
Bit rate : 1 509 Kbps
Channel(s) : 5 channels
Channel positions : Front: L C R, Side: L R
Sampling rate : 48.0 KHz
Bit depth : 24 bits
Compression mode : Lossy
Stream size : 865 MiB (19%)
Default : Yes
Forced : No

Text #1
ID : 3
Format : VobSub
Codec ID : S_VOBSUB
Codec ID/Info : The same subtitle format used on DVDs
Language : German
Default : Yes
Forced : No

Text #2
ID : 4
Format : VobSub
Codec ID : S_VOBSUB
Codec ID/Info : The same subtitle format used on DVDs
Language : English
Default : No
Forced : No

Text #3
ID : 5
Format : VobSub
Codec ID : S_VOBSUB
Codec ID/Info : The same subtitle format used on DVDs
Language : French
Default : No
Forced : No

Text #4
ID : 6
Format : VobSub
Codec ID : S_VOBSUB
Codec ID/Info : The same subtitle format used on DVDs
Language : Italian
Default : No
Forced : No

Text #5
ID : 7
Format : VobSub
Codec ID : S_VOBSUB
Codec ID/Info : The same subtitle format used on DVDs
Language : Spanish
Default : No
Forced : No

Text #6
ID : 8
Format : VobSub
Codec ID : S_VOBSUB
Codec ID/Info : The same subtitle format used on DVDs
Language : Korean
Default : No
Forced : No

Text #7
ID : 9
Format : VobSub
Codec ID : S_VOBSUB
Codec ID/Info : The same subtitle format used on DVDs
Language : Chinese
Default : No
Forced : No

Menu
00:00:00.000 : en:Chapter 01
00:00:53.420 : en:Chapter 02
00:18:24.403 : en:Chapter 03
00:31:32.557 : en:Chapter 04
00:48:15.759 : en:Chapter 05
01:13:29.571 : en:Chapter 06

All screenshots taken from BDRip

Christian Thielemann, Wiener Philharmoniker - Beethoven: Symphonies Nos. 7-9 (2010) [Blu-ray]
Christian Thielemann, Wiener Philharmoniker - Beethoven: Symphonies Nos. 7-9 (2010) [Blu-ray]