Subcategories
Tags
Language
Tags

Christian Thielemann, Wiener Philharmoniker - Beethoven: Symphonies Nos. 4-6 (2010) [Blu-ray]

Posted By: Vilboa
Christian Thielemann, Wiener Philharmoniker - Beethoven: Symphonies Nos. 4-6 (2010) [Blu-ray]

Christian Thielemann, Wiener Philharmoniker - Beethoven: Symphonies Nos. 4-6 (2010) [Blu-ray]
BluRay | BDMV | MPEG-4 AVC Video / 13459 kbps / 1080i / 29,970 fps | 132 min+171 min (bonus) | 40,2 Gb
Audio1: LPCM Audio / 2.0 / 48 kHz | Audio2: DTS-HD Master Audio / 5.0 / 48 kHz / 3821 kbps / 24-bit

BluRay-rip | AVC | MKV 1920x1080 / 6215 kbps / 29,970 fps | 132 min | 7,12 Gb
Audio: DTS / 5ch / 48.0 KHz / 24 bits
Classical | C Major

This is a Beethoven Symphonies Cycle of the 21st century! Christian Thielemann and the Vienna Philharmonic Orchestra perform Beethoven Symphonies Nos. 1 – 9 incl. and each DVD includes a one-hour-long documentary for each symphony.
Includes an hour-long documentary for each symphony where Maestro Thielemann and Joachim Kaiser (the most famous German music critic) discuss and analyze in an entertaining conversational exchange Thielemann’s interpretation, complemented by excerpts from rehearsals as well as by comparisons of Beethoven cycles with Karajan, Bernstein etc. – no aspect of Beethoven’s symphonic œuvre will remain unaffected!
The Documentaries include legendary footage of performances from Karajan, Bernstein, Böhm, Järvi etc.
The performances, the Vienna Philharmonic on top form, can't help sounding wonderful…oddly, it is the discussions that are the most enjoyable elements in this ambitious set. — BBC Music Magazine

Cast:
Wiener Philharmoniker
Conductor - Christian Thielemann

Track List:
Symphony No. 4 in B flat major, Op. 60 (1806)
Symphony No. 5 in C minor, Op. 67 (1804-1808)
Symphony No. 6 in F major, Op. 68 Pastoral (1804-1808)
Bonus: Discovering Beethoven


Disc Title: BEETHOVEN 4_6
Disc Size: 43 169 139 384 bytes
Protection: AACS
BD-Java: No
Playlist: 00000.MPLS
Size: 20 622 815 232 bytes
Length: 2:12:12.324
Total Bitrate: 20,80 Mbps
Video: MPEG-4 AVC Video / 13459 kbps / 1080i / 29,970 fps / 16:9 / High Profile 4.1
Audio: Undetermined / LPCM Audio / 2.0 / 48 kHz / 2304 kbps / 24-bit
Audio: Undetermined / DTS-HD Master Audio / 5.0 / 48 kHz / 3821 kbps / 24-bit (DTS Core: 5.0 / 48 kHz / 1509 kbps / 24-bit)


General
Unique ID : 179637683757591464215916613955326012729 (0x8724F59D221393DC88E9ABC9C15B6D39)
Complete name : C:\Symphonies_4_6.mkv
Format : Matroska
Format version : Version 2
File size : 7.13 GiB
Duration : 2h 11mn
Overall bit rate : 7 744 Kbps
Movie name : Symphonies_4_6
Encoded date : UTC 2017-10-21 10:52:10
Writing application : DVDFab 9.1.6.8
Writing library : libebml v0.7.8 + libmatroska v0.8.1

Video
ID : 1
Format : AVC
Format/Info : Advanced Video Codec
Format profile : High@L4.1
Format settings, CABAC : Yes
Format settings, ReFrames : 2 frames
Codec ID : V_MPEG4/ISO/AVC
Duration : 2h 11mn
Bit rate : 6 215 Kbps
Width : 1 920 pixels
Height : 1 080 pixels
Display aspect ratio : 16:9
Frame rate mode : Constant
Frame rate : 29.970 fps
Color space : YUV
Chroma subsampling : 4:2:0
Bit depth : 8 bits
Scan type : Progressive
Bits/(Pixel*Frame) : 0.100
Stream size : 5.60 GiB (79%)
Writing library : x264 core 142
Encoding settings : cabac=1 / ref=1 / deblock=1:-1:-1 / analyse=0x3:0 / me=hex / subme=5 / psy=0 / mixed_ref=0 / me_range=16 / chroma_me=1 / trellis=0 / 8x8dct=1 / cqm=0 / deadzone=21,11 / fast_pskip=1 / chroma_qp_offset=0 / threads=8 / lookahead_threads=2 / sliced_threads=0 / nr=0 / decimate=1 / interlaced=0 / bluray_compat=0 / constrained_intra=0 / bframes=2 / b_pyramid=0 / b_adapt=1 / b_bias=0 / direct=1 / weightb=1 / open_gop=0 / weightp=0 / keyint=24 / keyint_min=13 / scenecut=40 / intra_refresh=0 / rc=abr / mbtree=0 / bitrate=6215 / ratetol=1.0 / qcomp=0.60 / qpmin=0 / qpmax=69 / qpstep=4 / ip_ratio=1.40 / pb_ratio=1.30 / aq=1:1.00
Default : Yes
Forced : No
Color primaries : BT.709
Transfer characteristics : BT.709
Matrix coefficients : BT.709
Color range : Limited

Audio
ID : 2
Format : DTS
Format/Info : Digital Theater Systems
Mode : 16
Format settings, Endianness : Big
Codec ID : A_DTS
Duration : 2h 11mn
Bit rate mode : Constant
Bit rate : 1 509 Kbps
Channel(s) : 5 channels
Channel positions : Front: L C R, Side: L R
Sampling rate : 48.0 KHz
Bit depth : 24 bits
Compression mode : Lossy
Stream size : 1.39 GiB (19%)
Default : Yes
Forced : No

Menu
00:00:00.000 : en:Chapter 01
00:00:57.157 : en:Chapter 02
00:14:02.641 : en:Chapter 03
00:25:24.289 : en:Chapter 04
00:31:12.237 : en:Chapter 05
00:38:31.275 : en:Chapter 06
00:41:47.471 : en:Chapter 07
00:42:44.061 : en:Chapter 08
00:50:19.349 : en:Chapter 09
01:01:23.479 : en:Chapter 10
01:07:04.487 : en:Chapter 11
01:17:20.502 : en:Chapter 12
01:21:08.863 : en:Chapter 13
01:22:03.618 : en:Chapter 14
01:35:13.474 : en:Chapter 15
01:48:39.045 : en:Chapter 16
01:54:26.693 : en:Chapter 17
01:58:06.612 : en:Chapter 18
02:08:22.294 : en:Chapter 19

All screenshots taken from BDRip

Christian Thielemann, Wiener Philharmoniker - Beethoven: Symphonies Nos. 4-6 (2010) [Blu-ray]