Subcategories

Bee Gees & VA - Staying Alive: Original Motion Picture Soundtrack (1983) Japanese Reissue 1991 [Re-Up]

Posted By: Efgrapha
Bee Gees & VA - Staying Alive: Original Motion Picture Soundtrack (1983) Japanese Reissue 1991 [Re-Up]

Bee Gees & VA - Staying Alive: Original Motion Picture Soundtrack (1983)
EAC | FLAC (Image) + cue.+log ~ 249 Mb | Mp3, CBR320 kbps ~ 105 Mb
Label: Polydor K.K. | # POCP-2006 | Time: 00:45:49 | Scans ~ 98 Mb
Soundtrack, Disco, R&B, Pop/Rock

This sequel to Saturday Night Fever lacked the box office clout of the original, and the soundtrack album was likewise a disappointing seller, but it actually contains some of the better Bee Gees work of the 80s, notably the sad ballad "Someone Belonging to Someone."

Review by William Ruhlmann, Allmusic.com

I watched this film for the first time in the early 80s. I still can remember all the songs and music performed by BeeGees and other artists featured in the film. I don't know why I did not buy the album back then. Curiously, the soundtrack seemed to disappear from the surface of the world ever since. I looked everywhere in Taiwan, and then in England when I worked there. But I did not find it in all the shops I visited. At long last, eureka! it's right here on the Amazon site. I am so happy to be able to order this soundtrack from Amazon. And I am looking forward to receiving it and enjoying the songs that have made this film so memorable. I can hardly wait for the beautiful and romantic scenes to come up in my mind when I play the CD and listen to the lovely songs again, following Laura and Tony's footsteps in the Central Park, in the musical "Satan's Alley"…..P.S. This soundtrick is a must for all BeeGees fans, for I don't think you will find the 5 BeeGees songs featured in this soundtrack in other BeeGees albums.

Review by AFTON LEE, Amazon.com

Film at IMDB
Film at Wiki

Tracklist:

01. Bee Gees - The Woman In You (04:02)
02. Bee Gees - I Love You Too Much (04:25)
03. Bee Gees - Breakout (04:41)
04. Bee Gees - Someone Belonging To Someone (04:23)
05. Bee Gees - Life Goes On (04:23)
06. Bee Gees - Stayin' Alive (01:30)
07. Frank Stallone - Far From Over (03:54)
08. Tommy Faragher - Look Out For Number One (03:18)
09. Cynthia Rhodes - Finding Out The Hard Way (03:30)
10. Frank Stallone - Moody Girl (04:04)
11. Tommy Faragher - (We Dance) So Close To The Fire (03:41)
12. Frank Stallone And Cynthia Rhodes - I'm Never Gonna Give You Up (03:30)


Exact Audio Copy V1.0 beta 3 from 29. August 2011

EAC extraction logfile from 5. July 2013, 19:08

Various / Staying Alive

Used drive : PIONEER DVD-RW DVR-112D Adapter: 2 ID: 1

Read mode : Secure
Utilize accurate stream : Yes
Defeat audio cache : Yes
Make use of C2 pointers : No

Read offset correction : 48
Overread into Lead-In and Lead-Out : No
Fill up missing offset samples with silence : Yes
Delete leading and trailing silent blocks : No
Null samples used in CRC calculations : Yes
Used interface : Installed external ASPI interface

Used output format : User Defined Encoder
Selected bitrate : 1024 kBit/s
Quality : High
Add ID3 tag : No
Command line compressor : C:\Program Files (x86)\Exact Audio Copy\Flac\flac.exe
Additional command line options : -8 -V -T "Date=%year%" -T "Genre=%genre%" -T "COMMENT=ripped by bvstudio®" %source%


TOC of the extracted CD

Track | Start | Length | Start sector | End sector
––––––––––––––––––––––––––––-
1 | 0:00.00 | 4:04.57 | 0 | 18356
2 | 4:04.57 | 4:27.48 | 18357 | 38429
3 | 8:32.30 | 4:43.72 | 38430 | 59726
4 | 13:16.27 | 4:25.20 | 59727 | 79621
5 | 17:41.47 | 4:25.23 | 79622 | 99519
6 | 22:06.70 | 1:32.65 | 99520 | 106484
7 | 23:39.60 | 3:56.10 | 106485 | 124194
8 | 27:35.70 | 3:20.40 | 124195 | 139234
9 | 30:56.35 | 3:32.17 | 139235 | 155151
10 | 34:28.52 | 4:06.38 | 155152 | 173639
11 | 38:35.15 | 3:43.52 | 173640 | 190416
12 | 42:18.67 | 3:30.05 | 190417 | 206171


Range status and errors

Selected range

Filename F:\Bee Gees, Robin, Barry, Andy\Bee Gees\1983 - Staying Alive (1991 - Polydor K.K. Japan - POCP-2006 • P33W-20012)\Various - Staying Alive.wav

Peak level 81.6 %
Extraction speed 7.2 X
Range quality 99.9 %
Test CRC C31BF1B4
Copy CRC C31BF1B4
Copy OK

No errors occurred


AccurateRip summary

Track 1 not present in database
Track 2 not present in database
Track 3 not present in database
Track 4 not present in database
Track 5 not present in database
Track 6 not present in database
Track 7 not present in database
Track 8 not present in database
Track 9 not present in database
Track 10 not present in database
Track 11 not present in database
Track 12 not present in database

None of the tracks are present in the AccurateRip database

End of status report

–– CUETools DB Plugin V2.1.5

[CTDB TOCID: GSAW_BZuurzlRlKr1PIsRaFgD_4-] found
Submit result: GSAW_BZuurzlRlKr1PIsRaFgD_4- has been confirmed
Track | CTDB Status
1 | (1/1) Accurately ripped
2 | (1/1) Accurately ripped
3 | (1/1) Accurately ripped
4 | (1/1) Accurately ripped
5 | (1/1) Accurately ripped
6 | (1/1) Accurately ripped
7 | (1/1) Accurately ripped
8 | (1/1) Accurately ripped
9 | (1/1) Accurately ripped
10 | (1/1) Accurately ripped
11 | (1/1) Accurately ripped
12 | (1/1) Accurately ripped


==== Log checksum 37F88BF9F0C66E636E4A7C4B72253754263EA569CD65916C71191D1A2355FCEF ====

foobar2000 1.2.8 / Dynamic Range Meter 1.1.1
log date: 2013-07-06 21:04:09

––––––––––––––––––––––––––––––––––––––––
Analyzed: Bee Gees / Staying Alive (1-6)
Cynthia Rhodes / Staying Alive (7)
Frank Stallone And Cynthia Rhodes / Staying Alive (8)
––––––––––––––––––––––––––––––––––––––––

DR Peak RMS Duration Track
––––––––––––––––––––––––––––––––––––––––
DR15 -4.09 dB -21.35 dB 4:05 01-The Woman In You
DR15 -2.90 dB -20.57 dB 4:28 02-I Love You Too Much
DR16 -1.76 dB -20.76 dB 4:44 03-Breakout
DR14 -6.93 dB -23.89 dB 4:25 04-Someone Belonging To Someone
DR15 -5.75 dB -23.52 dB 4:25 05-Life Goes On
DR15 -4.21 dB -22.17 dB 1:33 06-Stayin' Alive
DR16 -3.17 dB -24.27 dB 3:32 09-Finding Out The Hard Way
DR13 -6.32 dB -23.76 dB 3:30 12-I'm Never Gonna Give You Up
––––––––––––––––––––––––––––––––––––––––

Number of tracks: 8
Official DR value: DR15

Samplerate: 44100 Hz
Channels: 2
Bits per sample: 16
Bitrate: 760 kbps
Codec: FLAC
================================================================================

––––––––––––––––––––––––––––––––––––––––
Analyzed: Frank Stallone / Staying Alive
––––––––––––––––––––––––––––––––––––––––

DR Peak RMS Duration Track
––––––––––––––––––––––––––––––––––––––––
DR13 -4.22 dB -20.83 dB 3:56 07-Far From Over
DR13 -5.88 dB -23.37 dB 4:07 10-Moody Girl
––––––––––––––––––––––––––––––––––––––––

Number of tracks: 2
Official DR value: DR13

Samplerate: 44100 Hz
Channels: 2
Bits per sample: 16
Bitrate: 760 kbps
Codec: FLAC
================================================================================

––––––––––––––––––––––––––––––––––––––––
Analyzed: Tommy Faragher / Staying Alive
––––––––––––––––––––––––––––––––––––––––

DR Peak RMS Duration Track
––––––––––––––––––––––––––––––––––––––––
DR14 -3.61 dB -21.30 dB 3:21 08-Look Out For Number One
DR14 -3.96 dB -21.06 dB 3:44 11-(We Dance) So Close To The Fire
––––––––––––––––––––––––––––––––––––––––

Number of tracks: 2
Official DR value: DR14

Samplerate: 44100 Hz
Channels: 2
Bits per sample: 16
Bitrate: 760 kbps
Codec: FLAC
================================================================================

Bee Gees & VA - Staying Alive: Original Motion Picture Soundtrack (1983) Japanese Reissue 1991 [Re-Up]

Bee Gees & VA - Staying Alive: Original Motion Picture Soundtrack (1983) Japanese Reissue 1991 [Re-Up]

All thanks to original uploader - bvstudio

More Movies & Soundtracks in Efgrapha Blog