Subcategories

Arturo Sandoval & Chucho Valdes - Straight Ahead (1995) {Ronnie Scott's Jazz House}

Posted By: tiburon
Arturo Sandoval & Chucho Valdes - Straight Ahead (1995) {Ronnie Scott's Jazz House}

Arturo Sandoval & Chucho Valdes - Straight Ahead (1995) {Ronnie Scott's Jazz House}
X Lossless Decoder | FLAC tracks | Cue+Log+M3U | Scans 300dpi | 256MB + 5% Recovery
MP3 CBR 320 Kbps | 104MB + 5% Recovery
Genre: Afro-Cuban Jazz, Post-Bop

With his remarkable range and phenomenal technique, Arturo Sandoval is one of the world's great trumpeters; he can do virtually anything he wants on his instrument. Some detractors have claimed that he has too much technique (is such a thing possible?) and that his recordings for GRP are a bit erratic. The latter criticism cannot be applied to this 1988 release. Sandoval is heard with a standard quartet comprised of the great pianist Chucho Valdes (the leader of Irakere), bassist Ron Matthewson, and drummer Martin Drew. Recorded in England before Sandoval broke ties with Cuba, Sandoval is in near-miraculous form on some blues, a lyrical "My Funny Valentine," and a few basic originals. Just listen to him tear through "Blue Monk," playing in the low register with the speed of an Al Hirt before jumping into the stratosphere like Maynard Ferguson. This CD serves as an excellent introduction for the bop lover to the very talented Arturo Sandoval.
Track List
01. King Pete's Heart (Sandoval) - 7:58
02. My Funny Valentine (Rodgers-Hart) - 10:34
03. Mambo Influenciado (Valdes) - 4:33
04. Claudia (Valdes) - 7:20
05. Blues 88 (Sandoval) - 6:52
06. Blue Monk (Monk) - 8:10

musicians
Arturo Sandoval - trumpet, flugelhorn
Chucho Valdes - piano
Ron Matthewson - bass
Martin Drew - drums

Recorded live at Ronnie Scott's Club, London in 1988.

Produced by Pete King


X Lossless Decoder version 20130602 (143.2)

XLD extraction logfile from 2013-07-19 14:02:23 -0400

Arturo Sandoval ‎& Chucho Valdés ‎ / Straight Ahead

Used drive : HL-DT-ST DVDRW GS31N (revision TA17)
Media type : Pressed CD

Ripper mode : XLD Secure Ripper
Disable audio cache : OK for the drive with a cache less than 1375KiB
Make use of C2 pointers : NO
Read offset correction : 667
Max retry count : 20
Gap status : Analyzed, Appended (except HTOA)

TOC of the extracted CD
Track | Start | Length | Start sector | End sector
––––––––––––––––––––––––––––-
1 | 00:00:33 | 07:57:67 | 33 | 35874
2 | 07:58:25 | 10:33:73 | 35875 | 83422
3 | 18:32:23 | 04:32:50 | 83423 | 103872
4 | 23:04:73 | 07:20:25 | 103873 | 136897
5 | 30:25:23 | 06:52:15 | 136898 | 167812
6 | 37:17:38 | 08:09:70 | 167813 | 204557

List of alternate offset correction values
# | Absolute | Relative | Confidence
–––––––––––––––––––––
1 | 1566 | 899 | 3

AccurateRip Summary (DiscID: 000b2d39-003ae952-490aa706)
Track 01 : OK (v1, confidence 3/3, with different offset)
Track 02 : OK (v1, confidence 3/3, with different offset)
Track 03 : OK (v1, confidence 3/3, with different offset)
Track 04 : OK (v1, confidence 3/3, with different offset)
Track 05 : NG (total 3 submissions)
Track 06 : OK (v1, confidence 3/3, with different offset)
->5 tracks accurately ripped, 1 track not

All Tracks
Album gain : -1.90 dB
Peak : 0.908203
Statistics
Read error : 0
Jitter error (maybe fixed) : 0
Retry sector count : 0
Damaged sector count : 0

Track 01
Filename : /Volumes/USB/What/Arturo Sandoval ‎& Chucho Valdés ‎ - Straight Ahead (1988) [FLAC]/01 King Pete's Heart.flac
/Volumes/USB/What/Arturo Sandoval ‎& Chucho Valdés ‎ - Straight Ahead (1988) [V0]/01 King Pete's Heart.mp3
/Volumes/USB/What/Arturo Sandoval ‎& Chucho Valdés ‎ - Straight Ahead (1988) [V2]/01 King Pete's Heart.mp3
/Volumes/USB/What/Arturo Sandoval ‎& Chucho Valdés ‎ - Straight Ahead (1988) [320]/01 King Pete's Heart.mp3
Pre-gap length : 00:02:33

Track gain : -0.07 dB
Peak : 0.907654
CRC32 hash (test run) : 4F9DC530
CRC32 hash : 4F9DC530
CRC32 hash (skip zero) : 05C901C8
AccurateRip v1 signature : C953E742 (65B41A15 w/correction)
AccurateRip v2 signature : 3E77FB7A
->Accurately ripped with different offset (v1, confidence 3/3, offset +899)
Statistics
Read error : 0
Jitter error (maybe fixed) : 0
Retry sector count : 0
Damaged sector count : 0

Track 02
Filename : /Volumes/USB/What/Arturo Sandoval ‎& Chucho Valdés ‎ - Straight Ahead (1988) [FLAC]/02 My Funny Valentine.flac
/Volumes/USB/What/Arturo Sandoval ‎& Chucho Valdés ‎ - Straight Ahead (1988) [V0]/02 My Funny Valentine.mp3
/Volumes/USB/What/Arturo Sandoval ‎& Chucho Valdés ‎ - Straight Ahead (1988) [V2]/02 My Funny Valentine.mp3
/Volumes/USB/What/Arturo Sandoval ‎& Chucho Valdés ‎ - Straight Ahead (1988) [320]/02 My Funny Valentine.mp3
Pre-gap length : 00:02:07

Track gain : 7.62 dB
Peak : 0.445892
CRC32 hash (test run) : 5BEF1976
CRC32 hash : 5BEF1976
CRC32 hash (skip zero) : 711AC297
AccurateRip v1 signature : 58006B7D (D9A9AB5F w/correction)
AccurateRip v2 signature : 1402D024
->Accurately ripped with different offset (v1, confidence 3/3, offset +899)
Statistics
Read error : 0
Jitter error (maybe fixed) : 0
Retry sector count : 0
Damaged sector count : 0

Track 03
Filename : /Volumes/USB/What/Arturo Sandoval ‎& Chucho Valdés ‎ - Straight Ahead (1988) [FLAC]/03 Mambo Influenciado.flac
/Volumes/USB/What/Arturo Sandoval ‎& Chucho Valdés ‎ - Straight Ahead (1988) [V0]/03 Mambo Influenciado.mp3
/Volumes/USB/What/Arturo Sandoval ‎& Chucho Valdés ‎ - Straight Ahead (1988) [V2]/03 Mambo Influenciado.mp3
/Volumes/USB/What/Arturo Sandoval ‎& Chucho Valdés ‎ - Straight Ahead (1988) [320]/03 Mambo Influenciado.mp3
Pre-gap length : 00:04:35

Track gain : -4.98 dB
Peak : 0.908203
CRC32 hash (test run) : 1C9A2820
CRC32 hash : 1C9A2820
CRC32 hash (skip zero) : 421CE9F9
AccurateRip v1 signature : 9C0E058C (0FC638E2 w/correction)
AccurateRip v2 signature : AB5AE4CF
->Accurately ripped with different offset (v1, confidence 3/3, offset +899)
Statistics
Read error : 0
Jitter error (maybe fixed) : 0
Retry sector count : 0
Damaged sector count : 0

Track 04
Filename : /Volumes/USB/What/Arturo Sandoval ‎& Chucho Valdés ‎ - Straight Ahead (1988) [FLAC]/04 Claudia.flac
/Volumes/USB/What/Arturo Sandoval ‎& Chucho Valdés ‎ - Straight Ahead (1988) [V0]/04 Claudia.mp3
/Volumes/USB/What/Arturo Sandoval ‎& Chucho Valdés ‎ - Straight Ahead (1988) [V2]/04 Claudia.mp3
/Volumes/USB/What/Arturo Sandoval ‎& Chucho Valdés ‎ - Straight Ahead (1988) [320]/04 Claudia.mp3
Pre-gap length : 00:04:65

Track gain : -1.49 dB
Peak : 0.780975
CRC32 hash (test run) : 493B32D7
CRC32 hash : 493B32D7
CRC32 hash (skip zero) : BF97B008
AccurateRip v1 signature : 2615694B (E01CF7A7 w/correction)
AccurateRip v2 signature : 7A68C5E3
->Accurately ripped with different offset (v1, confidence 3/3, offset +899)
Statistics
Read error : 0
Jitter error (maybe fixed) : 0
Retry sector count : 0
Damaged sector count : 0

Track 05
Filename : /Volumes/USB/What/Arturo Sandoval ‎& Chucho Valdés ‎ - Straight Ahead (1988) [FLAC]/05 Blues 88.flac
/Volumes/USB/What/Arturo Sandoval ‎& Chucho Valdés ‎ - Straight Ahead (1988) [V0]/05 Blues 88.mp3
/Volumes/USB/What/Arturo Sandoval ‎& Chucho Valdés ‎ - Straight Ahead (1988) [V2]/05 Blues 88.mp3
/Volumes/USB/What/Arturo Sandoval ‎& Chucho Valdés ‎ - Straight Ahead (1988) [320]/05 Blues 88.mp3
Pre-gap length : 00:02:25

Track gain : -3.07 dB
Peak : 0.883026
CRC32 hash (test run) : 6DD03D60
CRC32 hash : 6DD03D60
CRC32 hash (skip zero) : B4ADCF2B
AccurateRip v1 signature : 7A724C68
AccurateRip v2 signature : 6F181F57
->Rip may not be accurate (total 3 submissions).
Statistics
Read error : 0
Jitter error (maybe fixed) : 0
Retry sector count : 0
Damaged sector count : 0

Track 06
Filename : /Volumes/USB/What/Arturo Sandoval ‎& Chucho Valdés ‎ - Straight Ahead (1988) [FLAC]/06 Blue Monk.flac
/Volumes/USB/What/Arturo Sandoval ‎& Chucho Valdés ‎ - Straight Ahead (1988) [V0]/06 Blue Monk.mp3
/Volumes/USB/What/Arturo Sandoval ‎& Chucho Valdés ‎ - Straight Ahead (1988) [V2]/06 Blue Monk.mp3
/Volumes/USB/What/Arturo Sandoval ‎& Chucho Valdés ‎ - Straight Ahead (1988) [320]/06 Blue Monk.mp3
Pre-gap length : 00:02:33

Track gain : -2.44 dB
Peak : 0.907104
CRC32 hash (test run) : AFC6C68F
CRC32 hash : AFC6C68F
CRC32 hash (skip zero) : 8D0FB8CC
AccurateRip v1 signature : 6EB8E6EA (1A6B27C0 w/correction)
AccurateRip v2 signature : DDFCCA7E
->Accurately ripped with different offset (v1, confidence 3/3, offset +899)
Statistics
Read error : 0
Jitter error (maybe fixed) : 0
Retry sector count : 0
Damaged sector count : 0

No errors occurred

End of status report


foobar2000 1.3.13 / Dynamic Range Meter 1.1.1
log date: 2020-03-26 20:51:06

––––––––––––––––––––––––––––––––––––––––
Analyzed: Arturo Sandoval & Chucho Valdes / Straight Ahead
––––––––––––––––––––––––––––––––––––––––

DR Peak RMS Duration Track
––––––––––––––––––––––––––––––––––––––––
DR15 -0.84 dB -19.10 dB 7:58 01-King Pete's Heart
DR14 -7.02 dB -26.80 dB 10:34 02-My Funny Valentine
DR12 -0.84 dB -15.75 dB 4:33 03-Mambo Influenciado
DR14 -2.15 dB -20.36 dB 7:20 04-Claudia
DR13 -1.08 dB -18.02 dB 6:52 05-Blues 88
DR14 -0.85 dB -18.57 dB 8:10 06-Blue Monk
––––––––––––––––––––––––––––––––––––––––

Number of tracks: 6
Official DR value: DR14

Samplerate: 44100 Hz
Channels: 2
Bits per sample: 16
Bitrate: 897 kbps
Codec: FLAC
================================================================================

Arturo Sandoval & Chucho Valdes - Straight Ahead (1995) {Ronnie Scott's Jazz House}
Arturo Sandoval & Chucho Valdes - Straight Ahead (1995) {Ronnie Scott's Jazz House}


Thanks to the original ripper