Subcategories
Tags
Language
Tags

Allman Brothers Band - Idlewild South (1970) [2015, 3CD + Blu-Ray 45 Anniversary Super Deluxe Box Set]

Posted By: v3122
Allman Brothers Band - Idlewild South (1970) [2015, 3CD + Blu-Ray 45 Anniversary Super Deluxe Box Set]

Allman Brothers Band - Idlewild South (1970)
EAC | Flac(Image) + Cue + Log & MP3 CBR 320Kbps
3CD | Mercury/Universal Music, 602547346476 | ~ 1076 or 384 Mb | Scans(png) -> 424 Mb
Blu-Ray Audio: MPEG-4 AVC Video, 1080p, 23,976 fps, 16:9, High Profile 4.1
LPCMA 2.0, 24/96 kHz, 4608 kbps / DTS-HD MA 5.1, 24/96 kHz (DTS Core: 6.1 / 48 kHz / 1509 kbps / 24-bit)
Dolby TrueHD Audio 5.1, 24/96 kHz (AC3 Embedded: 5.1 / 48 kHz / 640 kbps) -> 10.33 Gb
Blues Rock / Classic Rock

The 3CD, Super Deluxe adds 12 tracks not included on the original release. Bonus tracks are a combination of live tracks, studio cuts and outtakes. The entire album is also available in 5.1 Surround Sound on the Blu-Ray plus additional tracks. The Allman Brothers' second album, is a mixture of chunky grooves and sophisticated textures. It showcases both Gregg Allman's and Dickey Betts' skills as songwriters. This classic album includes the hit 'Midnight Rider.'

~ amazon

Allman Brothers Band - Idlewild South (1970) [2015, 3CD + Blu-Ray 45 Anniversary Super Deluxe Box Set]

From the melodic opening lines of "Revival" to the closing strains of "Leave My Blues Alone" this is one of the best albums The Allman Brothers Band ever created. The band has, of course, created other masterpieces but this is the first album where everything comes together from the top notch playing by Duane and Dickey to Greg's bluesy growl. Most of the tracks from this album have became the bedrock of the band's concerts (and a good portion of this album formed the basis for the classic and seminal live album "Live at the Fillmore East").

"Idlewild South" has been remastered a number of times for CD but the best versions to purchase are the early edition mastered by Dennis Drake where Drake doesn't futz with the sound but presents the music naturally without compression or altering the sound of the original mastertape. Drake's remaster can usually be found used. If you see the "Capricorn Remasters" on the inlay card of the CD, this isn't the one remastered by Drake. You'll find a copy of Drake's remaster used in all probablility and its one of the original issues of the CD.

So, the latest version of "Idlewild South" is a three CD, Blu-ray combo. The first CD is the original album with out takes of "Statesboro Blues" , "One More Ride" and an alternate take of "In Memory of Elizabeth Reed" and an alternate mix of "Midnight Rider" closed out with the mono single edit of "Revival".

The second and third discs are an expanded version of "Live at Ludlow Garage". This features a 15 minute take of live take of "Reed"that wasn't on the previous version of the release.

Finally the Blu-ray disc includes a wonderful 5.1 mix of the album that sounds terrific. I had hoped that the BD disc might have footage from an early concert but that's not the case. Nevertheless, this is a terrific set.

Unlike the the Allman Brothers Band "Fillmore Concerts" multidisc set, this set packages all of this in an inexpensively designed cardboard artwork. The discs slide into the cardboard . It's not a problem for the multi-disc set but for this one, it just doesn't give sufficient protection for the CDs in the set (the Blu-ray, on the other hand, is much better resiliant.

There's a booklet (the artwork more than doubles the heighth of digipak artwork (and this is an extension of th digipak) and the cheaper packaging compared to the hardback book version, is a bit disappointing.

The best version, however, is the newly released version from Mobile Fidelity (which is back in business with new owners after going out of business in the early part of the 21st century). Mastered by Shawn R. Britton the album has never sounded this warm, rich or good on CD. If you can find the Britton remaster (google Music Direct or go to the Mobile Fidelity website)which was released in a limited, numbered edition in a replica of the original album sleeve, I'd snatch it up. It's possible some independent retailers are carrying it (sadly amazon.com is not and I'm not quite sure why perhaps its is sold out). Britton also did the marvelous remaster of Linda Ronstandt's "Dont Cry Now" and is also doing a remaster of a seminal Little Feat album).

Pick up this classic album you won't be sorry. If you can't find the Britton remaster go for the marvelous Drake (Drake also did early versions of "Beginnings" the album that combines this album with their first). Enjoy!

By Wayne Klein, amazon
Allman Brothers Band - Idlewild South (1970) [2015, 3CD + Blu-Ray 45 Anniversary Super Deluxe Box Set]


Allman Brothers Band - Idlewild South (1970):

Allman Brothers Band - Idlewild South (1970) [2015, 3CD + Blu-Ray 45 Anniversary Super Deluxe Box Set]

Tracklist CD1 - 1970 Idlewild South:

01. Revival 04:06
02. Don't Keep Me Wonderin' 03:31
03. Midnight Rider 03:00
04. In Memory Of Elizabeth Reed 06:59
05. Hoochie Coochie Man 04:58
06. Please Call Home 04:02
07. Leave My Blues At Home 04:20

Additional Material:
08. Statesboro Blues (Session Outtake) 04:10
09. In Memory Of Elizabeth Reed (Alternate Take) 08:20
10. One More Ride (Session Outtake) 03:48
11. Midnight Rider (Alternate Mix) 03:42
12. Revival (Love Is Everywhere) (Mono Single Version) 02:39

Exact Audio Copy V1.1 from 23. June 2015

EAC extraction logfile from 11. December 2015, 20:11

Allman Brothers Band / Idlewild South CD1

Used drive : PLEXTOR BD-R PX-B950SA Adapter: 1 ID: 1

Read mode : Secure
Utilize accurate stream : Yes
Defeat audio cache : Yes
Make use of C2 pointers : No

Read offset correction : 6
Overread into Lead-In and Lead-Out : No
Fill up missing offset samples with silence : Yes
Delete leading and trailing silent blocks : No
Null samples used in CRC calculations : Yes
Used interface : Native Win32 interface for Win NT & 2000

Used output format : Internal WAV Routines
Sample format : 44.100 Hz; 16 Bit; Stereo


TOC of the extracted CD

Track | Start | Length | Start sector | End sector
––––––––––––––––––––––––––––-
1 | 0:00.00 | 4:06.19 | 0 | 18468
2 | 4:06.19 | 3:31.45 | 18469 | 34338
3 | 7:37.64 | 3:00.05 | 34339 | 47843
4 | 10:37.69 | 6:59.07 | 47844 | 79275
5 | 17:37.01 | 4:58.15 | 79276 | 101640
6 | 22:35.16 | 4:02.65 | 101641 | 119855
7 | 26:38.06 | 4:20.68 | 119856 | 139423
8 | 30:58.74 | 4:10.36 | 139424 | 158209
9 | 35:09.35 | 8:20.18 | 158210 | 195727
10 | 43:29.53 | 3:48.00 | 195728 | 212827
11 | 47:17.53 | 3:42.47 | 212828 | 229524
12 | 51:00.25 | 2:39.40 | 229525 | 241489


Range status and errors

Selected range

Filename C:\Users\Meijin\Desktop\ALLexxess\Allman Brothers Band\1970 Idlewild South (3CD + Blu-ray Audio Box Set Mercury Records)\CD1 Idlewild South\Allman Brothers Band - Idlewild South CD1.wav

Peak level 100.0 %
Extraction speed 7.2 X
Range quality 100.0 %
Test CRC CDD659E0
Copy CRC CDD659E0
Copy OK

No errors occurred


AccurateRip summary

Track 1 accurately ripped (confidence 1) [3AF3FADD] (AR v2)
Track 2 accurately ripped (confidence 1) [CF799EAA] (AR v2)
Track 3 accurately ripped (confidence 1) [DB130C13] (AR v2)
Track 4 accurately ripped (confidence 1) [92847E88] (AR v2)
Track 5 accurately ripped (confidence 1) [ADB37959] (AR v2)
Track 6 accurately ripped (confidence 1) [A4B4291E] (AR v2)
Track 7 accurately ripped (confidence 1) [5288F940] (AR v2)
Track 8 accurately ripped (confidence 1) [4A729352] (AR v2)
Track 9 accurately ripped (confidence 1) [DAAAE703] (AR v2)
Track 10 accurately ripped (confidence 1) [43CD8D36] (AR v2)
Track 11 accurately ripped (confidence 1) [5F3C5D62] (AR v2)
Track 12 accurately ripped (confidence 1) [8A7FF539] (AR v2)

All tracks accurately ripped

End of status report

–– CUETools DB Plugin V2.1.6

[CTDB TOCID: zlaHP4B9R6md8uqVmhrf_vuMNAo-] found
Submit result: zlaHP4B9R6md8uqVmhrf_vuMNAo- has been confirmed
Track | CTDB Status
1 | (2/2) Accurately ripped
2 | (2/2) Accurately ripped
3 | (2/2) Accurately ripped
4 | (2/2) Accurately ripped
5 | (2/2) Accurately ripped
6 | (2/2) Accurately ripped
7 | (2/2) Accurately ripped
8 | (2/2) Accurately ripped
9 | (2/2) Accurately ripped
10 | (2/2) Accurately ripped
11 | (2/2) Accurately ripped
12 | (2/2) Accurately ripped


==== Log checksum 1EE5819E8CC11EB684EFC9A669C470AFF0724B570F065871B0D90CB8D3A784CB ====

foobar2000 1.2.9 / Dynamic Range Meter 1.1.1
log date: 2016-01-08 09:28:19

––––––––––––––––––––––––––––––––––––––––
Analyzed: Allman Brothers Band / Idlewild South CD1
––––––––––––––––––––––––––––––––––––––––

DR Peak RMS Duration Track
––––––––––––––––––––––––––––––––––––––––
DR9 0.00 dB -10.91 dB 4:06 01-Revival
DR9 0.00 dB -10.41 dB 3:32 02-Don't Keep Me Wonderin'
DR9 -0.06 dB -10.56 dB 3:00 03-Midnight Rider
DR9 0.00 dB -10.17 dB 6:59 04-In Memory Of Elizabeth Reed
DR9 -0.02 dB -10.95 dB 4:58 05-Hoochie Coochie Man
DR10 0.00 dB -12.22 dB 4:03 06-Please Call Home
DR9 0.00 dB -10.11 dB 4:21 07-Leave My Blues Alone
DR10 0.00 dB -11.49 dB 4:10 08-Statesboro Blues (Outtake) / Additional Material
DR9 0.00 dB -10.46 dB 8:20 09-In Memory Of Elizabeth Reed (Alternate Take) / Additional Material
DR9 0.00 dB -10.28 dB 3:48 10-One More Ride (Outtake) / Additional Material
DR9 0.00 dB -10.55 dB 3:43 11-Midnight Rider (Alternate Mix) / Additional Material
DR8 0.00 dB -9.56 dB 2:40 12-Revival (Mono Single Version) / Additional Material
––––––––––––––––––––––––––––––––––––––––

Number of tracks: 12
Official DR value: DR9

Samplerate: 44100 Hz
Channels: 2
Bits per sample: 16
Bitrate: 931 kbps
Codec: FLAC

[CUETools log; Date: 08.01.2016 9:18:14; Version: 2.1.4]
[CTDB TOCID: zlaHP4B9R6md8uqVmhrf_vuMNAo-] found.
Track | CTDB Status
1 | (10/10) Accurately ripped
2 | (10/10) Accurately ripped
3 | (10/10) Accurately ripped
4 | (10/10) Accurately ripped
5 | (10/10) Accurately ripped
6 | (10/10) Accurately ripped
7 | (10/10) Accurately ripped
8 | (10/10) Accurately ripped
9 | (10/10) Accurately ripped
10 | (10/10) Accurately ripped
11 | (10/10) Accurately ripped
12 | (10/10) Accurately ripped
[AccurateRip ID: 00181686-00e379f2-990c930c] found.
Track [ CRC | V2 ] Status
01 [fdb1f5fa|3af3fadd] (0+1/1) Accurately ripped
02 [f08bc713|cf799eaa] (0+1/1) Accurately ripped
03 [7319d7b5|db130c13] (0+1/1) Accurately ripped
04 [e89ffcd2|92847e88] (0+1/1) Accurately ripped
05 [9287f95d|adb37959] (0+1/1) Accurately ripped
06 [ac49d46a|a4b4291e] (0+1/1) Accurately ripped
07 [4572ef1f|5288f940] (0+1/1) Accurately ripped
08 [6d23bee5|4a729352] (0+1/1) Accurately ripped
09 [8ed9afa6|daaae703] (0+1/1) Accurately ripped
10 [28b8e4a9|43cd8d36] (0+1/1) Accurately ripped
11 [7c81089b|5f3c5d62] (0+1/1) Accurately ripped
12 [f3a123a3|8a7ff539] (0+1/1) Accurately ripped

Track Peak [ CRC32 ] [W/O NULL] [ LOG ]
– 100,0 [CDD659E0] [41C72B6B] CRC32
01 100,0 [01C4D886] [5D348607]
02 100,0 [FE72493D] [13D61E2C]
03 99,2 [A9CC4260] [FA9E8B1D]
04 100,0 [1C713FC3] [64254F68]
05 99,7 [AD39A6BE] [B2A2284C]
06 100,0 [7C2A17AA] [07FF312F]
07 100,0 [2646FB74] [57DC37E5]
08 100,0 [C915FFB7] [BD7BAE42]
09 100,0 [A7740947] [428218CD]
10 100,0 [40942565] [EAB27A8D]
11 100,0 [553FED2A] [D7FD6B3D]
12 100,0 [AFBDC92B] [8415A5E0]

Allman Brothers Band - Idlewild South (1970) [2015, 3CD + Blu-Ray 45 Anniversary Super Deluxe Box Set]

Tracklist CD2 - Live At Ludlow Garage 1970, Part 1:

01. Dreams 10:28
02. Statesboro Blues 08:38
03. Trouble No More 04:52
04. Dimples 05:47
05. Every Hungry Woman 04:22
06. I’m Gonna Move To The Outskirts Of Town 09:16
07. Hoochie Coochie Man 05:31

Exact Audio Copy V1.1 from 23. June 2015

EAC extraction logfile from 12. December 2015, 11:48

Allman Brothers Band / Idlewild South CD2

Used drive : PLEXTOR BD-R PX-B950SA Adapter: 1 ID: 1

Read mode : Secure
Utilize accurate stream : Yes
Defeat audio cache : Yes
Make use of C2 pointers : No

Read offset correction : 6
Overread into Lead-In and Lead-Out : No
Fill up missing offset samples with silence : Yes
Delete leading and trailing silent blocks : No
Null samples used in CRC calculations : Yes
Used interface : Native Win32 interface for Win NT & 2000

Used output format : Internal WAV Routines
Sample format : 44.100 Hz; 16 Bit; Stereo


TOC of the extracted CD

Track | Start | Length | Start sector | End sector
––––––––––––––––––––––––––––-
1 | 0:00.00 | 10:28.34 | 0 | 47133
2 | 10:28.34 | 8:38.19 | 47134 | 86002
3 | 19:06.53 | 4:52.27 | 86003 | 107929
4 | 23:59.05 | 5:47.05 | 107930 | 133959
5 | 29:46.10 | 4:22.26 | 133960 | 153635
6 | 34:08.36 | 9:16.00 | 153636 | 195335
7 | 43:24.36 | 5:31.06 | 195336 | 220166


Range status and errors

Selected range

Filename C:\Users\Meijin\Desktop\ALLexxess\Allman Brothers Band\1970 Idlewild South (3CD + Blu-ray Audio Box Set Mercury Records)\CD2-CD3 Live At Ludlow Garage 1970\Allman Brothers Band - Idlewild South CD2.wav

Peak level 98.0 %
Extraction speed 7.0 X
Range quality 99.9 %
Test CRC 25B8370F
Copy CRC 25B8370F
Copy OK

No errors occurred


AccurateRip summary

Track 1 accurately ripped (confidence 1) [1057A959] (AR v2)
Track 2 accurately ripped (confidence 1) [0F234886] (AR v2)
Track 3 accurately ripped (confidence 1) [C1BF1A1F] (AR v2)
Track 4 accurately ripped (confidence 1) [610895D4] (AR v2)
Track 5 accurately ripped (confidence 1) [0E5A2B1E] (AR v2)
Track 6 accurately ripped (confidence 1) [365D452E] (AR v2)
Track 7 accurately ripped (confidence 1) [BFFC347E] (AR v2)

All tracks accurately ripped

End of status report

–– CUETools DB Plugin V2.1.6

[CTDB TOCID: fRpUu51eFeIyY7kEOo4MjVQHsaY-] found
Submit result: fRpUu51eFeIyY7kEOo4MjVQHsaY- has been confirmed
Track | CTDB Status
1 | (2/2) Accurately ripped
2 | (2/2) Accurately ripped
3 | (2/2) Accurately ripped
4 | (2/2) Accurately ripped
5 | (2/2) Accurately ripped
6 | (2/2) Accurately ripped
7 | (2/2) Accurately ripped


==== Log checksum 40688DE15A79C6E4BD474B2189247B4D54CF073C1A9488B4F48D77568251BA2A ====

foobar2000 1.2.9 / Dynamic Range Meter 1.1.1
log date: 2016-01-08 10:42:05

––––––––––––––––––––––––––––––––––––––––
Analyzed: Allman Brothers Band / Idlewild South CD2
––––––––––––––––––––––––––––––––––––––––

DR Peak RMS Duration Track
––––––––––––––––––––––––––––––––––––––––
DR10 -0.17 dB -12.88 dB 10:28 01-Dreams
DR11 -0.24 dB -13.68 dB 8:38 02-Statesboro Blues
DR9 -0.21 dB -11.87 dB 4:52 03-Trouble No More
DR10 -0.18 dB -12.87 dB 5:47 04-Dimples
DR11 -0.25 dB -13.22 dB 4:22 05-Every Hungry Woman
DR12 -0.24 dB -15.29 dB 9:16 06-I’m Gonna Move To The Outskirts Of Town
DR11 -0.26 dB -13.45 dB 5:31 07-Hoochie Coochie Man
––––––––––––––––––––––––––––––––––––––––

Number of tracks: 7
Official DR value: DR10

Samplerate: 44100 Hz
Channels: 2
Bits per sample: 16
Bitrate: 834 kbps
Codec: FLAC

[CUETools log; Date: 08.01.2016 9:20:58; Version: 2.1.4]
[CTDB TOCID: fRpUu51eFeIyY7kEOo4MjVQHsaY-] found.
Track | CTDB Status
1 | (9/9) Accurately ripped
2 | (9/9) Accurately ripped
3 | (9/9) Accurately ripped
4 | (9/9) Accurately ripped
5 | (9/9) Accurately ripped
6 | (9/9) Accurately ripped
7 | (9/9) Accurately ripped
[AccurateRip ID: 000e6826-0053fd2e-500b7707] found.
Track [ CRC | V2 ] Status
01 [a3b34569|1057a959] (0+1/1) Accurately ripped
02 [4916b20d|0f234886] (0+1/1) Accurately ripped
03 [4a76ffec|c1bf1a1f] (0+1/1) Accurately ripped
04 [9a9dff99|610895d4] (0+1/1) Accurately ripped
05 [b26cd0ef|0e5a2b1e] (0+1/1) Accurately ripped
06 [6451be76|365d452e] (0+1/1) Accurately ripped
07 [89e57f5b|bffc347e] (0+1/1) Accurately ripped

Track Peak [ CRC32 ] [W/O NULL] [ LOG ]
– 98,0 [25B8370F] [D7C1F628] CRC32
01 98,0 [E85A5AA7] [AAA39F57]
02 97,3 [0EF490EA] [7341F6BE]
03 97,6 [F5D88B90] [9358604A]
04 97,9 [7BA50510] [331EBB92]
05 97,1 [9C5C3469] [7B311ECF]
06 97,2 [635AB265] [276624DF]
07 97,0 [C5F423AE] [9B8F5201]

Allman Brothers Band - Idlewild South (1970) [2015, 3CD + Blu-Ray 45 Anniversary Super Deluxe Box Set]

Tracklist CD3 - Live At Ludlow Garage 1970, Part 2:

01. In Memory Of Elizabeth Reed 15:03
02. Mountain Jam 45:12

Exact Audio Copy V1.1 from 23. June 2015

EAC extraction logfile from 12. December 2015, 11:06

Allman Brothers Band / Idlewild South CD3

Used drive : PLEXTOR BD-R PX-B950SA Adapter: 1 ID: 1

Read mode : Secure
Utilize accurate stream : Yes
Defeat audio cache : Yes
Make use of C2 pointers : No

Read offset correction : 6
Overread into Lead-In and Lead-Out : No
Fill up missing offset samples with silence : Yes
Delete leading and trailing silent blocks : No
Null samples used in CRC calculations : Yes
Used interface : Native Win32 interface for Win NT & 2000

Used output format : Internal WAV Routines
Sample format : 44.100 Hz; 16 Bit; Stereo


TOC of the extracted CD

Track | Start | Length | Start sector | End sector
––––––––––––––––––––––––––––-
1 | 0:00.00 | 15:03.22 | 0 | 67746
2 | 15:03.22 | 45:12.33 | 67747 | 271179


Range status and errors

Selected range

Filename C:\Users\Meijin\Desktop\ALLexxess\Allman Brothers Band\1970 Idlewild South (3CD + Blu-ray Audio Box Set Mercury Records)\CD2-CD3 Live At Ludlow Garage 1970\Allman Brothers Band - Idlewild South CD3.wav

Peak level 99.3 %
Extraction speed 9.4 X
Range quality 100.0 %
Test CRC C3DDDAFC
Copy CRC C3DDDAFC
Copy OK

No errors occurred


AccurateRip summary

Track 1 accurately ripped (confidence 1) [1BF33B30] (AR v2)
Track 2 accurately ripped (confidence 1) [37A44309] (AR v2)

All tracks accurately ripped

End of status report

–– CUETools DB Plugin V2.1.6

[CTDB TOCID: NKDRrYTwco_eB9cWL2ARJjXNEr8-] found
Submit result: NKDRrYTwco_eB9cWL2ARJjXNEr8- has been confirmed
Track | CTDB Status
1 | (1/1) Accurately ripped
2 | (1/1) Accurately ripped


==== Log checksum 64DFD6092C1727857CAFFD3D784D60385984C966A4D6C1D3066D2B8EDA7E842C ====

foobar2000 1.2.9 / Dynamic Range Meter 1.1.1
log date: 2016-01-08 10:42:25

––––––––––––––––––––––––––––––––––––––––
Analyzed: Allman Brothers Band / Idlewild South CD3
––––––––––––––––––––––––––––––––––––––––

DR Peak RMS Duration Track
––––––––––––––––––––––––––––––––––––––––
DR11 -0.27 dB -13.81 dB 15:03 01-In Memory Of Elizabeth Reed
DR12 -0.06 dB -15.15 dB 45:12 02-Mountain Jam
––––––––––––––––––––––––––––––––––––––––

Number of tracks: 2
Official DR value: DR11

Samplerate: 44100 Hz
Channels: 2
Bits per sample: 16
Bitrate: 894 kbps
Codec: FLAC

[CUETools log; Date: 08.01.2016 9:23:05; Version: 2.1.4]
[CTDB TOCID: NKDRrYTwco_eB9cWL2ARJjXNEr8-] found.
Track | CTDB Status
1 | (8/8) Accurately ripped
2 | (8/8) Accurately ripped
[AccurateRip ID: 00052bef-000e7b2b-100e1f02] found.
Track [ CRC | V2 ] Status
01 [13331b4c|1bf33b30] (0+1/1) Accurately ripped
02 [e0190179|37a44309] (0+1/1) Accurately ripped

Track Peak [ CRC32 ] [W/O NULL] [ LOG ]
– 99,3 [C3DDDAFC] [1111DA09] CRC32
01 96,9 [131BBAC3] [D1A91762]
02 99,3 [F14A634C] [E9CF1950]

Allman Brothers Band - Idlewild South (1970) [2015, 3CD + Blu-Ray 45 Anniversary Super Deluxe Box Set]

Tracklist Blu-Ray:

01 Revival
02 Don’t Keep Me Wonderin’
03 Midnight Rider
04 In Memory Of Elizabeth Reed
05 Hoochie Coochie Man
06 Please Call Home
07 Leave My Blues At Home

Additional Material:
08 Statesboro Blues (Session Outtake)
09 In Memory Of Elizabeth Reed (Alternate Take)
10 One More Ride (Session Outtake)
11 Midnight Rider (Alternate Mix)

Disc Title: Allman Brothers Band 1971 - Idlewild South - BD
Disc Size: 10 512 556 388 bytes
Protection: AACS
BD-Java: Yes
BDInfo: 0.5.8

Notes:

BDINFO HOME:
Cinema Squid
http://www.cinemasquid.com/blu-ray/tools/bdinfo

INCLUDES FORUMS REPORT FOR:
AVS Forum Blu-ray Audio and Video Specifications Thread
http://www.avsforum.com/avs-vb/showthread.php?t=1155731

WARNING: Report is incomplete because: Scan has not been run.

********************
PLAYLIST: 00000.MPLS
********************

<–- BEGIN FORUMS PASTE –->
                                                                                                                Total   Video                                             
Title                                                           Codec   Length  Movie Size      Disc Size       Bitrate Bitrate Main Audio Track                          Secondary Audio Track
-----                                                           ------  ------- --------------  --------------  ------- ------- ------------------                        ---------------------
00000.MPLS                                                      AVC     0:51:53 0               10 512 556 388  0,00    0,00    LPCM 2.0 4608Kbps (96kHz/24-bit)          DTS-HD Master 5.1 (96kHz/24-bit)


DISC INFO:

Disc Title:     Allman Brothers Band 1971 - Idlewild South - BD
Disc Size:      10 512 556 388 bytes
Protection:     AACS
BD-Java:        Yes
BDInfo:         0.5.8

PLAYLIST REPORT:

Name:                   00000.MPLS
Length:                 0:51:53.276 (h:m:s.ms)
Size:                   0 bytes
Total Bitrate:          0,00 Mbps

VIDEO:

Codec                   Bitrate             Description     
-----                   -------             -----------     
MPEG-4 AVC Video        0 kbps              1080p / 23,976 fps / 16:9 / High Profile 4.1
MPEG-4 AVC Video        0 kbps              480p / 23,976 fps / 16:9 / High Profile 3.2

AUDIO:

Codec                           Language        Bitrate         Description     
-----                           --------        -------         -----------     
LPCM Audio                      English         4608 kbps       2.0 / 96 kHz / 4608 kbps / 24-bit
DTS-HD Master Audio             English         0 kbps          5.1 / 96 kHz / 24-bit (DTS Core: 6.1 / 48 kHz / 1509 kbps / 24-bit)
Dolby TrueHD Audio              English         0 kbps          5.1 / 96 kHz / 24-bit (AC3 Embedded: 5.1 / 48 kHz / 640 kbps)

FILES:

Name            Time In         Length          Size            Total Bitrate   
----            -------         ------          ----            -------------   
00000.M2TS      0:00:00.000     0:51:53.276     0               0               

CHAPTERS:

Number          Time In         Length          Avg Video Rate  Max 1-Sec Rate  Max 1-Sec Time  Max 5-Sec Rate  Max 5-Sec Time  Max 10Sec Rate  Max 10Sec Time  Avg Frame Size  Max Frame Size  Max Frame Time  
------          -------         ------          --------------  --------------  --------------  --------------  --------------  --------------  --------------  --------------  --------------  --------------  
1               0:00:00.000     0:04:07.747     0 kbps          0 kbps          00:00:00.000    0 kbps          00:00:00.000    0 kbps          00:00:00.000    0 bytes         0 bytes         00:00:00.000    
2               0:04:07.747     0:03:31.586     0 kbps          0 kbps          00:00:00.000    0 kbps          00:00:00.000    0 kbps          00:00:00.000    0 bytes         0 bytes         00:00:00.000    
3               0:07:39.333     0:03:00.054     0 kbps          0 kbps          00:00:00.000    0 kbps          00:00:00.000    0 kbps          00:00:00.000    0 bytes         0 bytes         00:00:00.000    
4               0:10:39.388     0:06:59.085     0 kbps          0 kbps          00:00:00.000    0 kbps          00:00:00.000    0 kbps          00:00:00.000    0 bytes         0 bytes         00:00:00.000    
5               0:17:38.474     0:04:58.214     0 kbps          0 kbps          00:00:00.000    0 kbps          00:00:00.000    0 kbps          00:00:00.000    0 bytes         0 bytes         00:00:00.000    
6               0:22:36.688     0:04:02.867     0 kbps          0 kbps          00:00:00.000    0 kbps          00:00:00.000    0 kbps          00:00:00.000    0 bytes         0 bytes         00:00:00.000    
7               0:26:39.556     0:04:20.885     0 kbps          0 kbps          00:00:00.000    0 kbps          00:00:00.000    0 kbps          00:00:00.000    0 bytes         0 bytes         00:00:00.000    
8               0:31:00.441     0:04:10.500     0 kbps          0 kbps          00:00:00.000    0 kbps          00:00:00.000    0 kbps          00:00:00.000    0 bytes         0 bytes         00:00:00.000    
9               0:35:10.942     0:08:20.249     0 kbps          0 kbps          00:00:00.000    0 kbps          00:00:00.000    0 kbps          00:00:00.000    0 bytes         0 bytes         00:00:00.000    
10              0:43:31.191     0:03:47.977     0 kbps          0 kbps          00:00:00.000    0 kbps          00:00:00.000    0 kbps          00:00:00.000    0 bytes         0 bytes         00:00:00.000    
11              0:47:19.169     0:03:42.639     0 kbps          0 kbps          00:00:00.000    0 kbps          00:00:00.000    0 kbps          00:00:00.000    0 bytes         0 bytes         00:00:00.000    
12              0:51:01.808     0:00:51.468     0 kbps          0 kbps          00:00:00.000    0 kbps          00:00:00.000    0 kbps          00:00:00.000    0 bytes         0 bytes         00:00:00.000    

STREAM DIAGNOSTICS:

File            PID             Type            Codec           Language                Seconds                 Bitrate                 Bytes           Packets         
----            ---             ----            -----           --------                --------------          --------------          -------------   -----           
00000.M2TS      4113 (0x1011)   0x1B            AVC                                     0,667                   0                       0               0               
00000.M2TS      4352 (0x1100)   0x80            LPCM            eng (English)           0,667                   0                       0               0               
00000.M2TS      4353 (0x1101)   0x86            DTS-HD MA       eng (English)           0,667                   0                       0               0               
00000.M2TS      4354 (0x1102)   0x83            TrueHD          eng (English)           0,667                   0                       0               0               
00000.M2TS      6912 (0x1B00)   0x1B            AVC                                     0,667                   0                       0               0               

<–– END FORUMS PASTE ––>

QUICK SUMMARY:

Disc Title: Allman Brothers Band 1971 - Idlewild South - BD
Disc Size: 10 512 556 388 bytes
Protection: AACS
BD-Java: Yes
Playlist: 00000.MPLS
Size: 0 bytes
Length: 0:51:53.276
Total Bitrate: 0,00 Mbps
Video: MPEG-4 AVC Video / 0 kbps / 1080p / 23,976 fps / 16:9 / High Profile 4.1
Video: MPEG-4 AVC Video / 0 kbps / 480p / 23,976 fps / 16:9 / High Profile 3.2
Audio: English / LPCM Audio / 2.0 / 96 kHz / 4608 kbps / 24-bit
Audio: English / DTS-HD Master Audio / 5.1 / 96 kHz / 24-bit (DTS Core: 6.1 / 48 kHz / 1509 kbps / 24-bit)
Audio: English / Dolby TrueHD Audio / 5.1 / 96 kHz / 24-bit (AC3 Embedded: 5.1 / 48 kHz / 640 kbps)


********************
PLAYLIST: 01000.MPLS
********************

<–- BEGIN FORUMS PASTE –->
                                                                                                                Total   Video                                             
Title                                                           Codec   Length  Movie Size      Disc Size       Bitrate Bitrate Main Audio Track                          Secondary Audio Track
-----                                                           ------  ------- --------------  --------------  ------- ------- ------------------                        ---------------------
01000.MPLS                                                      AVC     0:51:53 0               10 512 556 388  0,00    0,00    LPCM 2.0 4608Kbps (96kHz/24-bit)          DTS-HD Master 5.1 (96kHz/24-bit)


DISC INFO:

Disc Title:     Allman Brothers Band 1971 - Idlewild South - BD
Disc Size:      10 512 556 388 bytes
Protection:     AACS
BD-Java:        Yes
BDInfo:         0.5.8

PLAYLIST REPORT:

Name:                   01000.MPLS
Length:                 0:51:53.276 (h:m:s.ms)
Size:                   0 bytes
Total Bitrate:          0,00 Mbps

VIDEO:

Codec                   Bitrate             Description     
-----                   -------             -----------     
MPEG-4 AVC Video        0 kbps              1080p / 23,976 fps / 16:9 / High Profile 4.1
MPEG-4 AVC Video        0 kbps              480p / 23,976 fps / 16:9 / High Profile 3.2

AUDIO:

Codec                           Language        Bitrate         Description     
-----                           --------        -------         -----------     
LPCM Audio                      English         4608 kbps       2.0 / 96 kHz / 4608 kbps / 24-bit
DTS-HD Master Audio             English         0 kbps          5.1 / 96 kHz / 24-bit (DTS Core: 6.1 / 48 kHz / 1509 kbps / 24-bit)
Dolby TrueHD Audio              English         0 kbps          5.1 / 96 kHz / 24-bit (AC3 Embedded: 5.1 / 48 kHz / 640 kbps)

FILES:

Name            Time In         Length          Size            Total Bitrate   
----            -------         ------          ----            -------------   
00000.M2TS      0:00:00.000     0:51:53.276     0               0               

CHAPTERS:

Number          Time In         Length          Avg Video Rate  Max 1-Sec Rate  Max 1-Sec Time  Max 5-Sec Rate  Max 5-Sec Time  Max 10Sec Rate  Max 10Sec Time  Avg Frame Size  Max Frame Size  Max Frame Time  
------          -------         ------          --------------  --------------  --------------  --------------  --------------  --------------  --------------  --------------  --------------  --------------  
1               0:00:00.000     0:04:07.747     0 kbps          0 kbps          00:00:00.000    0 kbps          00:00:00.000    0 kbps          00:00:00.000    0 bytes         0 bytes         00:00:00.000    
2               0:04:07.747     0:03:31.586     0 kbps          0 kbps          00:00:00.000    0 kbps          00:00:00.000    0 kbps          00:00:00.000    0 bytes         0 bytes         00:00:00.000    
3               0:07:39.333     0:03:00.054     0 kbps          0 kbps          00:00:00.000    0 kbps          00:00:00.000    0 kbps          00:00:00.000    0 bytes         0 bytes         00:00:00.000    
4               0:10:39.388     0:06:59.085     0 kbps          0 kbps          00:00:00.000    0 kbps          00:00:00.000    0 kbps          00:00:00.000    0 bytes         0 bytes         00:00:00.000    
5               0:17:38.474     0:04:58.214     0 kbps          0 kbps          00:00:00.000    0 kbps          00:00:00.000    0 kbps          00:00:00.000    0 bytes         0 bytes         00:00:00.000    
6               0:22:36.688     0:04:02.867 			  		  		  	 			   		  	   		  		  		  	   	 			   		   	  		  		  		  		  	 			   		   	  		 	    		   				     0 kbps          0 kbps          00:00:00.000    0 kbps          00:00:00.000    0 kbps          00:00:00.000    0 bytes         0 bytes         00:00:00.000    
7               0:26:39.556     0:04:20.885     0 kbps          0 kbps          00:00:00.000    0 kbps          00:00:00.000    0 kbps          00:00:00.000    0 bytes         0 bytes         00:00:00.000    
8               0:31:00.441     0:04:10.500     0 kbps          0 kbps          00:00:00.000    0 kbps          00:00:00.000    0 kbps          00:00:00.000    0 bytes         0 bytes         00:00:00.000    
9               0:35:10.942     0:08:20.249     0 kbps          0 kbps          00:00:00.000    0 kbps          00:00:00.000    0 kbps          00:00:00.000    0 bytes         0 bytes         00:00:00.000    
10              0:43:31.191     0:03:47.977     0 kbps          0 kbps          00:00:00.000    0 kbps          00:00:00.000    0 kbps          00:00:00.000    0 bytes         0 bytes         00:00:00.000    
11              0:47:19.169     0:03:42.639     0 kbps          0 kbps          00:00:00.000    0 kbps          00:00:00.000    0 kbps          00:00:00.000    0 bytes         0 bytes         00:00:00.000    
12              0:51:01.808     0:00:51.468     0 kbps          0 kbps          00:00:00.000    0 kbps          00:00:00.000    0 kbps          00:00:00.000    0 bytes         0 bytes         00:00:00.000    

STREAM DIAGNOSTICS:

File            PID             Type            Codec           Language                Seconds                 Bitrate                 Bytes           Packets         
----            ---             ----            -----           --------                --------------          --------------          -------------   -----           
00000.M2TS      4113 (0x1011)   0x1B            AVC                                     0,667                   0                       0               0               
00000.M2TS      4352 (0x1100)   0x80            LPCM            eng (English)           0,667                   0                       0               0               
00000.M2TS      4353 (0x1101)   0x86            DTS-HD MA       eng (English)           0,667                   0                       0               0               
00000.M2TS      4354 (0x1102)   0x83            TrueHD          eng (English)           0,667                   0                       0               0               
00000.M2TS      6912 (0x1B00)   0x1B            AVC                                     0,667                   0                       0               0               

<–– END FORUMS PASTE ––>

QUICK SUMMARY:

Disc Title: Allman Brothers Band 1971 - Idlewild South - BD
Disc Size: 10 512 556 388 bytes
Protection: AACS
BD-Java: Yes
Playlist: 01000.MPLS
Size: 0 bytes
Length: 0:51:53.276
Total Bitrate: 0,00 Mbps
Video: MPEG-4 AVC Video / 0 kbps / 1080p / 23,976 fps / 16:9 / High Profile 4.1
Video: MPEG-4 AVC Video / 0 kbps / 480p / 23,976 fps / 16:9 / High Profile 3.2
Audio: English / LPCM Audio / 2.0 / 96 kHz / 4608 kbps / 24-bit
Audio: English / DTS-HD Master Audio / 5.1 / 96 kHz / 24-bit (DTS Core: 6.1 / 48 kHz / 1509 kbps / 24-bit)
Audio: English / Dolby TrueHD Audio / 5.1 / 96 kHz / 24-bit (AC3 Embedded: 5.1 / 48 kHz / 640 kbps)


********************
PLAYLIST: 01002.MPLS
********************

<–- BEGIN FORUMS PASTE –->
                                                                                                                Total   Video                                             
Title                                                           Codec   Length  Movie Size      Disc Size       Bitrate Bitrate Main Audio Track                          Secondary Audio Track
-----                                                           ------  ------- --------------  --------------  ------- ------- ------------------                        ---------------------
01002.MPLS                                                      AVC     0:51:53 0               10 512 556 388  0,00    0,00    LPCM 2.0 4608Kbps (96kHz/24-bit)          DTS-HD Master 5.1 (96kHz/24-bit)


DISC INFO:

Disc Title:     Allman Brothers Band 1971 - Idlewild South - BD
Disc Size:      10 512 556 388 bytes
Protection:     AACS
BD-Java:        Yes
BDInfo:         0.5.8

PLAYLIST REPORT:

Name:                   01002.MPLS
Length:                 0:51:53.276 (h:m:s.ms)
Size:                   0 bytes
Total Bitrate:          0,00 Mbps

VIDEO:

Codec                   Bitrate             Description     
-----                   -------             -----------     
MPEG-4 AVC Video        0 kbps              1080p / 23,976 fps / 16:9 / High Profile 4.1
MPEG-4 AVC Video        0 kbps              480p / 23,976 fps / 16:9 / High Profile 3.2

AUDIO:

Codec                           Language        Bitrate         Description     
-----                           --------        -------         -----------     
LPCM Audio                      English         4608 kbps       2.0 / 96 kHz / 4608 kbps / 24-bit
DTS-HD Master Audio             English         0 kbps          5.1 / 96 kHz / 24-bit (DTS Core: 6.1 / 48 kHz / 1509 kbps / 24-bit)
Dolby TrueHD Audio              English         0 kbps          5.1 / 96 kHz / 24-bit (AC3 Embedded: 5.1 / 48 kHz / 640 kbps)

FILES:

Name            Time In         Length          Size            Total Bitrate   
----            -------         ------          ----            -------------   
00000.M2TS      0:00:00.000     0:51:53.276     0               0               

CHAPTERS:

Number          Time In         Length          Avg Video Rate  Max 1-Sec Rate  Max 1-Sec Time  Max 5-Sec Rate  Max 5-Sec Time  Max 10Sec Rate  Max 10Sec Time  Avg Frame Size  Max Frame Size  Max Frame Time  
------          -------         ------          --------------  --------------  --------------  --------------  --------------  --------------  --------------  --------------  --------------  --------------  
1               0:00:00.000     0:04:08.539     0 kbps          0 kbps          00:00:00.000    0 kbps          00:00:00.000    0 kbps          00:00:00.000    0 bytes         0 bytes         00:00:00.000    
2               0:04:08.539     0:03:31.586     0 kbps          0 kbps          00:00:00.000    0 kbps          00:00:00.000    0 kbps          00:00:00.000    0 bytes         0 bytes         00:00:00.000    
3               0:07:40.126     0:03:29.459     0 kbps          0 kbps          00:00:00.000    0 kbps          00:00:00.000    0 kbps          00:00:00.000    0 bytes         0 bytes         00:00:00.000    
4               0:11:09.585     0:06:56.582     0 kbps          0 kbps          00:00:00.000    0 kbps          00:00:00.000    0 kbps          00:00:00.000    0 bytes         0 bytes         00:00:00.000    
5               0:18:06.168     0:04:56.963     0 kbps          0 kbps          00:00:00.000    0 kbps          00:00:00.000    0 kbps          00:00:00.000    0 bytes         0 bytes         00:00:00.000    
6               0:23:03.131     0:04:06.955     0 kbps          0 kbps          00:00:00.000    0 kbps          00:00:00.000    0 kbps          00:00:00.000    0 bytes         0 bytes         00:00:00.000    
7               0:27:10.086     0:04:28.935     0 kbps          0 kbps          00:00:00.000    0 kbps          00:00:00.000    0 kbps          00:00:00.000    0 bytes         0 bytes         00:00:00.000    
8               0:31:39.022     0:04:10.583     0 kbps          0 kbps          00:00:00.000    0 kbps          00:00:00.000    0 kbps          00:00:00.000    0 bytes         0 bytes         00:00:00.000    
9               0:35:49.605     0:08:19.081     0 kbps          0 kbps          00:00:00.000    0 kbps          00:00:00.000    0 kbps          00:00:00.000    0 bytes         0 bytes         00:00:00.000    
10              0:44:08.687     0:03:50.313     0 kbps          0 kbps          00:00:00.000    0 kbps          00:00:00.000    0 kbps          00:00:00.000    0 bytes         0 bytes         00:00:00.000    
11              0:47:59.001     0:03:54.275     0 kbps          0 kbps          00:00:00.000    0 kbps          00:00:00.000    0 kbps          00:00:00.000    0 bytes         0 bytes         00:00:00.000    

STREAM DIAGNOSTICS:

File            PID             Type            Codec           Language                Seconds                 Bitrate                 Bytes           Packets         
----            ---             ----            -----           --------                --------------          --------------          -------------   -----           
00000.M2TS      4113 (0x1011)   0x1B            AVC                                     0,667                   0                       0               0               
00000.M2TS      4352 (0x1100)   0x80            LPCM            eng (English)           0,667                   0                       0               0               
00000.M2TS      4353 (0x1101)   0x86            DTS-HD MA       eng (English)           0,667                   0                       0               0               
00000.M2TS      4354 (0x1102)   0x83            TrueHD          eng (English)           0,667                   0                       0               0               
00000.M2TS      6912 (0x1B00)   0x1B            AVC                                     0,667                   0                       0               0               

<–– END FORUMS PASTE ––>

QUICK SUMMARY:

Disc Title: Allman Brothers Band 1971 - Idlewild South - BD
Disc Size: 10 512 556 388 bytes
Protection: AACS
BD-Java: Yes
Playlist: 01002.MPLS
Size: 0 bytes
Length: 0:51:53.276
Total Bitrate: 0,00 Mbps
Video: MPEG-4 AVC Video / 0 kbps / 1080p / 23,976 fps / 16:9 / High Profile 4.1
Video: MPEG-4 AVC Video / 0 kbps / 480p / 23,976 fps / 16:9 / High Profile 3.2
Audio: English / LPCM Audio / 2.0 / 96 kHz / 4608 kbps / 24-bit
Audio: English / DTS-HD Master Audio / 5.1 / 96 kHz / 24-bit (DTS Core: 6.1 / 48 kHz / 1509 kbps / 24-bit)
Audio: English / Dolby TrueHD Audio / 5.1 / 96 kHz / 24-bit (AC3 Embedded: 5.1 / 48 kHz / 640 kbps)



Allman Brothers Band - Idlewild South (1970) [2015, 3CD + Blu-Ray 45 Anniversary Super Deluxe Box Set]

* * *

Allman Brothers Band - Idlewild South (1970) [2015, 3CD + Blu-Ray 45 Anniversary Super Deluxe Box Set]

All thanks go to ALLexxess

The Allman Brothers Band in my Blog

Download Allman Brothers Band - Idlewild South (1970):