Subcategories

Adrian Gurvitz - Sweet Vendetta (1979) [2006 Japan K2 HD] Re-Up

Posted By: JET 1
Adrian Gurvitz - Sweet Vendetta (1979) [2006 Japan K2 HD] Re-Up

Adrian Gurvitz - Sweet Vendetta (1979) [2006 Japan K2 HD]
EAC Rip | FLAC (Tracks) +CUE, LOG | 455 MB | Covers Included
AOR | Label: Victor [Japan] | Catalog Number: VICP-63251

Excellent Underrated AOR album from English Songwriter / Musician Adrian Gurvitz, Released in 1979 on JET label.

In 1979, Gurvitz went solo and recorded two albums with Jet Records. He wrote Sweet Vendetta with US studio musicians Jeff, Joe and Steve Porcaro, and David Paich who later started the band, Toto. He later wrote Il Assassino in 1980. After his deal with Jet Records ended, he signed with EMI/Rak in Europe and Geffen Records in the US. There he released his third album, Classic. Gurvitz reached massive success with the song "Classic", reaching No. 8 in the UK Singles Chart. "Classic" was one of the most played ballads in England in 1982. The follow-up single was "Your Dream".

Exact Audio Copy V1.0 beta 3 from 29. August 2011

EAC extraction logfile from 23. November 2014, 18:33

Adrian Gurvitz / Sweet Vendetta [Japan Bonus Track]

Used drive : ATAPI DVD A DH16A6L-C Adapter: 2 ID: 0

Read mode : Secure
Utilize accurate stream : Yes
Defeat audio cache : Yes
Make use of C2 pointers : No

Read offset correction : 6
Overread into Lead-In and Lead-Out : No
Fill up missing offset samples with silence : Yes
Delete leading and trailing silent blocks : No
Null samples used in CRC calculations : Yes
Used interface : Native Win32 interface for Win NT & 2000
Gap handling : Appended to previous track

Used output format : User Defined Encoder
Selected bitrate : 1024 kBit/s
Quality : High
Add ID3 tag : No
Command line compressor : C:\Program Files\FLAC\flac.exe
Additional command line options : -8 -V -T "ARTIST=%artist%" -T "TITLE=%title%" -T "ALBUM=%albumtitle%" -T "DATE=%year%" -T "TRACKNUMBER=%tracknr%" -T "GENRE=%genre%" -T "PERFORMER=%albuminterpret%" -T "COMPOSER=%composer%" %haslyrics%–tag-from-file=LYRICS="%lyricsfile%"%haslyrics% -T "ALBUMARTIST=%albumartist%" -T "DISCNUMBER=%cdnumber%" -T "TOTALDISCS=%totalcds%" -T "TOTALTRACKS=%numtracks%" -T "COMMENT=%comment%" %source% -o %dest%


TOC of the extracted CD

Track | Start | Length | Start sector | End sector
––––––––––––––––––––––––––––-
1 | 0:00.00 | 5:01.03 | 0 | 22577
2 | 5:01.03 | 4:14.32 | 22578 | 41659
3 | 9:15.35 | 6:16.58 | 41660 | 69917
4 | 15:32.18 | 4:49.72 | 69918 | 91664
5 | 20:22.15 | 5:17.18 | 91665 | 115457
6 | 25:39.33 | 3:58.70 | 115458 | 133377
7 | 29:38.28 | 4:00.05 | 133378 | 151382
8 | 33:38.33 | 5:29.50 | 151383 | 176107
9 | 39:08.08 | 2:52.62 | 176108 | 189069
10 | 42:00.70 | 3:51.50 | 189070 | 206444


Track 1

Filename F:\0\!!!!!POST!!!!\Adrian Gurvitz - Sweet Vendetta (1979)\01 - Untouchable and Free.wav

Pre-gap length 0:00:02.00

Peak level 97.9 %
Extraction speed 3.5 X
Track quality 100.0 %
Test CRC 8389C96D
Copy CRC 8389C96D
Accurately ripped (confidence 2) [BA8A6C2F] (AR v2)
Copy OK

Track 2

Filename F:\0\!!!!!POST!!!!\Adrian Gurvitz - Sweet Vendetta (1979)\02 - The Wonder of It All.wav

Pre-gap length 0:00:03.04

Peak level 97.9 %
Extraction speed 3.9 X
Track quality 100.0 %
Test CRC A53AD52C
Copy CRC A53AD52C
Accurately ripped (confidence 2) [1F6531EE] (AR v2)
Copy OK

Track 3

Filename F:\0\!!!!!POST!!!!\Adrian Gurvitz - Sweet Vendetta (1979)\03 - Put a Little Love (In Life's Heart).wav

Pre-gap length 0:00:00.14

Peak level 97.9 %
Extraction speed 4.5 X
Track quality 100.0 %
Test CRC 94AE5A54
Copy CRC 94AE5A54
Accurately ripped (confidence 2) [142070B4] (AR v2)
Copy OK

Track 4

Filename F:\0\!!!!!POST!!!!\Adrian Gurvitz - Sweet Vendetta (1979)\04 - Love Space.wav

Pre-gap length 0:00:01.34

Peak level 97.9 %
Extraction speed 4.8 X
Track quality 100.0 %
Test CRC 9D26CC3B
Copy CRC 9D26CC3B
Accurately ripped (confidence 2) [10189F21] (AR v2)
Copy OK

Track 5

Filename F:\0\!!!!!POST!!!!\Adrian Gurvitz - Sweet Vendetta (1979)\05 - The Way I Feel.wav

Pre-gap length 0:00:03.06

Peak level 97.9 %
Extraction speed 5.2 X
Track quality 100.0 %
Test CRC 5B213F83
Copy CRC 5B213F83
Accurately ripped (confidence 2) [F9E22EEC] (AR v2)
Copy OK

Track 6

Filename F:\0\!!!!!POST!!!!\Adrian Gurvitz - Sweet Vendetta (1979)\06 - Time Is Endless.wav

Pre-gap length 0:00:02.09

Peak level 97.9 %
Extraction speed 5.4 X
Track quality 100.0 %
Test CRC B308925A
Copy CRC B308925A
Accurately ripped (confidence 2) [99FD6CCD] (AR v2)
Copy OK

Track 7

Filename F:\0\!!!!!POST!!!!\Adrian Gurvitz - Sweet Vendetta (1979)\07 - I Just Wanna Get Inside Your Head.wav

Pre-gap length 0:00:00.07

Peak level 97.9 %
Extraction speed 5.6 X
Track quality 100.0 %
Test CRC 0A73988A
Copy CRC 0A73988A
Accurately ripped (confidence 2) [FAEEDE50] (AR v2)
Copy OK

Track 8

Filename F:\0\!!!!!POST!!!!\Adrian Gurvitz - Sweet Vendetta (1979)\08 - Free Ride.wav

Pre-gap length 0:00:02.57

Peak level 97.9 %
Extraction speed 5.2 X
Track quality 99.9 %
Test CRC BD3F43D7
Copy CRC BD3F43D7
Accurately ripped (confidence 2) [9E3A351C] (AR v2)
Copy OK

Track 9

Filename F:\0\!!!!!POST!!!!\Adrian Gurvitz - Sweet Vendetta (1979)\09 - One More Time.wav

Pre-gap length 0:00:02.57

Peak level 97.9 %
Extraction speed 5.8 X
Track quality 100.0 %
Test CRC A89A0E6F
Copy CRC A89A0E6F
Accurately ripped (confidence 2) [6A4D9F1F] (AR v2)
Copy OK

Track 10

Filename F:\0\!!!!!POST!!!!\Adrian Gurvitz - Sweet Vendetta (1979)\10 - Drifting Star.wav

Pre-gap length 0:00:02.04

Peak level 97.9 %
Extraction speed 6.2 X
Track quality 100.0 %
Test CRC 949EFFB5
Copy CRC 949EFFB5
Accurately ripped (confidence 2) [4E0F43EC] (AR v2)
Copy OK


All tracks accurately ripped

No errors occurred

End of status report

==== Log checksum 45A353F089920855816138F0E73119DB1D068412A6F655D4FFB43C41982F8A2F ====


Tracklist:
1. UNTOUCHABLE AND FREE
2. THE WONDER OF IT ALL
3. PUT A LITTLE LOVE (IN LIFE'S HEART)
4. LOVE SPACE
5. THE WAY I FEEL
6. TIME IS ENDLESS
7. I JUST WANNA GET INSIDE YOUR HEAD
8. FREE RIDE
9. ONE MORE TIME
10. DRIFTING STAR (BONUS TRACK)

Credits:
Chuck Findley Trumpet
Ed Greene Drums
Adrian Gurvitz Composer, Guitar, Primary Artist, Producer, Vocals, Vocals (Background)
Paul Gurvitz Mixing, Producer, Vocals
Jerry Hey Brass Arrangement, Trumpet
David Hungate Bass, Guitar
Richard Hyde Trombone
Sly Hyde Trombone
Toshikazu Kanazawa Liner Notes
Stillman Kelly Engineer
Steve Leeds Flute, Saxophone
Steve Madaio Trumpet
Marie Nishimori Liner Notes
David Paich Piano, String Arrangements
Marty Paich String Arrangements
Jeff Porcaro Drums, Percussion
Joe Porcaro Percussion
Steve Porcaro Clavinet, Keyboards, Piano, Piano (Electric), String Arrangements, Synthesizer
Earl Lon Price Saxophone, Soloist
Rich Schlosser Drums
Jackson Schwartz Engineer
David Sheilds Bass
David Shields Bass
Rick Shlosser Drums
Geoff Sykes Engineer, Mixing
Fred Tackett Guitar, Guitar (Acoustic)

Notes:
℗&©1979 Jet Records
Manufactured and distributed by Victor Entertainment Inc., Japan
Recorded at Kendun Recorders, Los Angeles
Japanese-only limited edition Mini LP CD.
Housed in mini-LP cardboard sleeve, replica of original LP jacket.
Digitally K2HD remastering with superior sound quality.