Subcategories

4 Hero - Two Pages (1998) {Talkin' Loud/Mercury}

Posted By: TestTickles
4 Hero - Two Pages (1998) {Talkin' Loud/Mercury}

4 Hero - Two Pages (1998) {Talkin' Loud/Mercury}
EAC Rip | FLAC with CUE and LOG | scans | 449 mb
MP3 CBR 320 kbps | RAR | 175 mb
Genre: electronic, funk/soul, broken beat

Two Pages is the 1998 album by British electronic duo 4 Hero. This was released by Talkin' Loud via Mercury.

4 Hero - Two Pages (1998) {Talkin' Loud/Mercury}

01. Loveless
02. Golden Age Of Life
03. Planetaria (A Theme From A Dream)
04. Third Stream
05. Wormholes
06. Escape That
07. Mother Solar
08. Spirits In Transit
09. Greys
10. Action
11. Star Chasers
12. Wishful Thinking
13. Normal Changing World
14. Universal Reprise
15. We Who Are Not As Others
16. Humans
17. Pegasus 51
18. (symbols)
19. De-Sci-Fer

Exact Audio Copy V1.0 beta 6 from 9. April 2015

EAC extraction logfile from 28. July 2020, 14:20

4 Hero / Two Pages

Used drive : TSSTcorpDVD+-RW TS-L633C Adapter: 1 ID: 0

Read mode : Secure
Utilize accurate stream : Yes
Defeat audio cache : Yes
Make use of C2 pointers : No

Read offset correction : 6
Overread into Lead-In and Lead-Out : No
Fill up missing offset samples with silence : Yes
Delete leading and trailing silent blocks : No
Null samples used in CRC calculations : Yes
Used interface : Native Win32 interface for Win NT & 2000
Gap handling : Appended to previous track

Used output format : Internal WAV Routines
Sample format : 44.100 Hz; 16 Bit; Stereo


TOC of the extracted CD

Track | Start | Length | Start sector | End sector
––––––––––––––––––––––––––––-
1 | 0:00.00 | 5:53.12 | 0 | 26486
2 | 5:53.12 | 6:01.33 | 26487 | 53594
3 | 11:54.45 | 6:02.37 | 53595 | 80781
4 | 17:57.07 | 6:04.50 | 80782 | 108131
5 | 24:01.57 | 0:32.25 | 108132 | 110556
6 | 24:34.07 | 5:25.33 | 110557 | 134964
7 | 29:59.40 | 0:10.72 | 134965 | 135786
8 | 30:10.37 | 4:54.70 | 135787 | 157906
9 | 35:05.32 | 2:00.28 | 157907 | 166934
10 | 37:05.60 | 3:17.67 | 166935 | 181776
11 | 40:23.52 | 4:52.53 | 181777 | 203729
12 | 45:16.30 | 4:39.72 | 203730 | 224726
13 | 49:56.27 | 0:13.65 | 224727 | 225766
14 | 50:10.17 | 5:25.25 | 225767 | 250166
15 | 55:35.42 | 7:56.48 | 250167 | 285914
16 | 63:32.15 | 3:27.42 | 285915 | 301481
17 | 66:59.57 | 4:17.65 | 301482 | 320821
18 | 71:17.47 | 6:26.25 | 320822 | 349796
19 | 77:43.72 | 0:05.18 | 349797 | 350189


Track 1

Filename C:\My Documents\My FLAC\4 Hero - Two Pages (1998) [FLAC] {Talkin' Loud, Mercury}\01 - Loveless.wav

Pre-gap length 0:00:02.00

Peak level 98.8 %
Extraction speed 2.8 X
Track quality 100.0 %
Test CRC E6C4BD85
Copy CRC E6C4BD85
Cannot be verified as accurate (confidence 9) [BA754197], AccurateRip returned [FF0FF2E9] (AR v2)
Copy OK

Track 2

Filename C:\My Documents\My FLAC\4 Hero - Two Pages (1998) [FLAC] {Talkin' Loud, Mercury}\02 - Golden Age Of Life.wav

Peak level 98.8 %
Extraction speed 3.3 X
Track quality 100.0 %
Test CRC BA5BFF0C
Copy CRC BA5BFF0C
Cannot be verified as accurate (confidence 9) [47249340], AccurateRip returned [2058CFDE] (AR v2)
Copy OK

Track 3

Filename C:\My Documents\My FLAC\4 Hero - Two Pages (1998) [FLAC] {Talkin' Loud, Mercury}\03 - Planetaria (A Theme From A Dream).wav

Peak level 98.8 %
Extraction speed 1.4 X
Track quality 100.0 %
Test CRC 3FC9498F
Copy CRC 3FC9498F
Cannot be verified as accurate (confidence 9) [A8F6DA49], AccurateRip returned [B3D37D89] (AR v2)
Copy OK

Track 4

Filename C:\My Documents\My FLAC\4 Hero - Two Pages (1998) [FLAC] {Talkin' Loud, Mercury}\04 - Third Stream.wav

Peak level 98.8 %
Extraction speed 1.5 X
Track quality 100.0 %
Test CRC 99832361
Copy CRC 99832361
Cannot be verified as accurate (confidence 9) [B509A0F9], AccurateRip returned [E595876C] (AR v2)
Copy OK

Track 5

Filename C:\My Documents\My FLAC\4 Hero - Two Pages (1998) [FLAC] {Talkin' Loud, Mercury}\05 - Wormholes.wav

Peak level 45.1 %
Extraction speed 2.0 X
Track quality 100.0 %
Test CRC DE401A83
Copy CRC DE401A83
Cannot be verified as accurate (confidence 9) [0ADB7F59], AccurateRip returned [BB65C97B] (AR v2)
Copy OK

Track 6

Filename C:\My Documents\My FLAC\4 Hero - Two Pages (1998) [FLAC] {Talkin' Loud, Mercury}\06 - Escape That.wav

Peak level 98.8 %
Extraction speed 1.4 X
Track quality 100.0 %
Test CRC EDF5789F
Copy CRC EDF5789F
Cannot be verified as accurate (confidence 9) [7C8311D9], AccurateRip returned [909B0B0A] (AR v2)
Copy OK

Track 7

Filename C:\My Documents\My FLAC\4 Hero - Two Pages (1998) [FLAC] {Talkin' Loud, Mercury}\07 - Mother Solar.wav

Peak level 88.9 %
Extraction speed 0.4 X
Track quality 99.0 %
Test CRC B428B9C2
Copy CRC B428B9C2
Cannot be verified as accurate (confidence 9) [902CFFBA], AccurateRip returned [D01D3FA2] (AR v2)
Copy OK

Track 8

Filename C:\My Documents\My FLAC\4 Hero - Two Pages (1998) [FLAC] {Talkin' Loud, Mercury}\08 - Spirits In Transit.wav

Peak level 98.8 %
Extraction speed 0.4 X
Track quality 100.0 %
Test CRC F04811D1
Copy CRC F04811D1
Cannot be verified as accurate (confidence 9) [8C97A355], AccurateRip returned [4D4A2E21] (AR v2)
Copy OK

Track 9

Filename C:\My Documents\My FLAC\4 Hero - Two Pages (1998) [FLAC] {Talkin' Loud, Mercury}\09 - Greys.wav

Peak level 64.9 %
Extraction speed 2.5 X
Track quality 100.0 %
Test CRC 97081204
Copy CRC 97081204
Cannot be verified as accurate (confidence 9) [36703BE1], AccurateRip returned [4E65E239] (AR v2)
Copy OK

Track 10

Filename C:\My Documents\My FLAC\4 Hero - Two Pages (1998) [FLAC] {Talkin' Loud, Mercury}\10 - Action.wav

Peak level 98.8 %
Extraction speed 2.2 X
Track quality 99.9 %
Test CRC 38D2887E
Copy CRC 38D2887E
Cannot be verified as accurate (confidence 9) [01D674F2], AccurateRip returned [4A775D9D] (AR v2)
Copy OK

Track 11

Filename C:\My Documents\My FLAC\4 Hero - Two Pages (1998) [FLAC] {Talkin' Loud, Mercury}\11 - Star Chasers.wav

Peak level 98.8 %
Extraction speed 3.9 X
Track quality 100.0 %
Test CRC 2FF0317A
Copy CRC 2FF0317A
Cannot be verified as accurate (confidence 9) [16DD5F20], AccurateRip returned [64FBBAF3] (AR v2)
Copy OK

Track 12

Filename C:\My Documents\My FLAC\4 Hero - Two Pages (1998) [FLAC] {Talkin' Loud, Mercury}\12 - Wishful Thinking.wav

Pre-gap length 0:00:00.01

Suspicious position 0:04:26 - 0:04:27
Suspicious position 0:04:29

Peak level 98.8 %
Extraction speed 0.4 X
Track quality 98.9 %
Test CRC EF7C53F9
Copy CRC 2EC3277F
Cannot be verified as accurate (confidence 9) [2741DE7A], AccurateRip returned [D0CE31FF] (AR v2)
Copy finished

Track 13

Filename C:\My Documents\My FLAC\4 Hero - Two Pages (1998) [FLAC] {Talkin' Loud, Mercury}\13 - Normal Changing World.wav

Peak level 30.8 %
Extraction speed 0.1 X
Track quality 98.2 %
Test CRC 1C27C6F9
Copy CRC 1C27C6F9
Cannot be verified as accurate (confidence 9) [7E851269], AccurateRip returned [C37CCC0B] (AR v2)
Copy OK

Track 14

Filename C:\My Documents\My FLAC\4 Hero - Two Pages (1998) [FLAC] {Talkin' Loud, Mercury}\14 - Universal Reprise.wav

Suspicious position 0:00:00 - 0:00:03
Suspicious position 0:00:05

Peak level 98.8 %
Extraction speed 0.3 X
Track quality 98.2 %
Test CRC AAEC4597
Copy CRC C72A3A82
Cannot be verified as accurate (confidence 9) [D362DFF8], AccurateRip returned [31664227] (AR v2)
Copy finished

Track 15

Filename C:\My Documents\My FLAC\4 Hero - Two Pages (1998) [FLAC] {Talkin' Loud, Mercury}\15 - We Who Are Not As Others.wav

Peak level 98.8 %
Extraction speed 4.7 X
Track quality 100.0 %
Test CRC A5A4968F
Copy CRC A5A4968F
Cannot be verified as accurate (confidence 9) [DF414DC4], AccurateRip returned [B659EAEB] (AR v2)
Copy OK

Track 16

Filename C:\My Documents\My FLAC\4 Hero - Two Pages (1998) [FLAC] {Talkin' Loud, Mercury}\16 - Humans.wav

Peak level 97.9 %
Extraction speed 4.5 X
Track quality 100.0 %
Test CRC 2276E667
Copy CRC 2276E667
Cannot be verified as accurate (confidence 9) [DAF3E793], AccurateRip returned [8E3AA76D] (AR v2)
Copy OK

Track 17

Filename C:\My Documents\My FLAC\4 Hero - Two Pages (1998) [FLAC] {Talkin' Loud, Mercury}\17 - Pegasus 51.wav

Peak level 94.0 %
Extraction speed 5.4 X
Track quality 100.0 %
Test CRC 2829EFC5
Copy CRC 2829EFC5
Cannot be verified as accurate (confidence 9) [D573E252], AccurateRip returned [23869A15] (AR v2)
Copy OK

Track 18

Filename C:\My Documents\My FLAC\4 Hero - Two Pages (1998) [FLAC] {Talkin' Loud, Mercury}\18 - (symbols).wav

Peak level 95.5 %
Extraction speed 5.4 X
Track quality 100.0 %
Test CRC 9C0432F1
Copy CRC 9C0432F1
Cannot be verified as accurate (confidence 9) [72C6D856], AccurateRip returned [ED472C04] (AR v2)
Copy OK

Track 19

Filename C:\My Documents\My FLAC\4 Hero - Two Pages (1998) [FLAC] {Talkin' Loud, Mercury}\19 - De-Sci-Fer.wav

Peak level 36.2 %
Extraction speed 0.7 X
Track quality 100.0 %
Test CRC 7690EECD
Copy CRC 7690EECD
Track not present in AccurateRip database
Copy OK


18 track(s) could not be verified as accurate
1 track(s) not present in the AccurateRip database

No tracks could be verified as accurate

There were errors

End of status report

–– CUETools DB Plugin V2.1.6

[CTDB TOCID: ZkvmoBQlCFz8NmSAf2yFR4.OBJE-] found
Submit result: insufficient quality
Track | CTDB Status
1 | (20/21) Accurately ripped
2 | (18/21) Accurately ripped
3 | (20/21) Accurately ripped
4 | (20/21) Accurately ripped
5 | (20/21) Accurately ripped
6 | (20/21) Accurately ripped
7 | (20/21) Accurately ripped
8 | (20/21) Accurately ripped
9 | (20/21) Accurately ripped
10 | (20/21) Accurately ripped
11 | (20/21) Accurately ripped
12 | (15/21) Differs in 677 samples @04:26:65-04:26:66,04:27:09-04:27:10,04:29:66-04:29:67
13 | (20/21) Accurately ripped
14 | (15/21) Differs in 1033 samples @00:02:39-00:02:40,00:04:41-00:04:42,00:05:04-00:05:05,00:05:61-00:05:62,00:06:42-00:06:43,00:07:05-00:07:06
15 | (20/21) Accurately ripped
16 | (19/21) Accurately ripped
17 | (20/21) Accurately ripped
18 | (19/21) Accurately ripped
19 | (18/21) Accurately ripped
If you are sure that your rip contains errors, you can use CUETools to repair it.


==== Log checksum B66510C24281B70912EE42A542AD12BB9463B1BBE8083EF46D31BD8E3EBDE9B6 ====


4 Hero - Two Pages (1998) {Talkin' Loud/Mercury}