Subcategories

...Sings Prince (2016 BBC Music) **[RE-UP]**

Posted By: TestTickles
...Sings Prince (2016 BBC Music) **[RE-UP]**

…Sings Prince (2016 BBC Music)
Web rip | 640 x 360 (MP4) @ 16:9 | MP3 @ 94 kbps (48 kHz) | 28 min | English | 161 mb
Genre: music, documentary

…Sings Prince is a 2016 show from the BBC Music that highlights Prince and some of the cover versions that has been done of his music. These were lip-syncs or live performances done by the likes of Alicia Keys, The Bangles, Sinead O'Connor and more.

...Sings Prince (2016 BBC Music) **[RE-UP]**


General
Complete name : C:\My Documents\AAA Videos\…Sings Prince\Sings.Prince.WEB-DL.x264-OM.mp4
Format : MPEG-4
Format profile : Base Media
Codec ID : isom
File size : 162 MiB
Duration : 28mn 10s
Overall bit rate mode : Constant
Overall bit rate : 803 Kbps
Collection : … Sings Prince
Season : 1
Album : … Sings Prince
Album/Performer : BBC TV
Part : 1
Part/Position : 1
Track name : … Sings Prince
Track name/Position : 1
Grouping : Music,Performances & Events,Classic Pop & Rock
Performer : BBC Music
Composer : BBC iPlayer
Genre : Music
ContentType : TV Show
Description : A compilation of songs written by Prince but made famous by other artists.
Recorded date : 2016-04-29T10:00:00+01:00
Tagged date : UTC 2016-04-30 00:15:42
Writing application : Lavf55.33.100
Copyright : 2016 British Broadcasting Corporation, all rights reserved
Cover : Yes
Lyrics : With the untimely passing of music superstar Prince, and in recognition and celebration of his prolific songwriting talent, this is a compilation of performances from the BBC archive of songs written by Prince but made famous by other artists. / / Featuring Sinead O'Connor on Top of the Pops in 1990 performing Nothing Compares to U, American girl group the Bangles performing their Prince-penned smash Manic Monday in 1986 and a 20-year-old Alicia Keys on Later with Jools Holland in 2001 performing Prince's How Come You Don't Call Me Anymore? No compilation of Prince songs would be complete without Chaka Khan belting out I Feel For You. Plus the unique collaboration of Art of Noise and Tom Jones performing the iconic Prince hit Kiss on Top of the Pops, and a performance of The Holy River by the Purple One himself on Top of Pops in 1997. / / EPISODE / http://www.bbc.co.uk/iplayer/episode/b07bfshr
Comment : A compilation of songs written by Prince but made famous by other artists.
Part_ID : s01e01
TVNetworkName : BBC Music

Video
ID : 1
Format : AVC
Format/Info : Advanced Video Codec
Format profile : Main@L3
Format settings, CABAC : Yes
Format settings, ReFrames : 2 frames
Codec ID : avc1
Codec ID/Info : Advanced Video Coding
Duration : 28mn 10s
Bit rate mode : Constant
Bit rate : 704 Kbps
Width : 640 pixels
Height : 360 pixels
Display aspect ratio : 16:9
Frame rate mode : Constant
Frame rate : 25.000 fps
Color space : YUV
Chroma subsampling : 4:2:0
Bit depth : 8 bits
Scan type : Progressive
Bits/(Pixel*Frame) : 0.122
Stream size : 142 MiB (88%)

Audio
ID : 2
Format : AAC
Format/Info : Advanced Audio Codec
Format profile : LC
Codec ID : 40
Duration : 28mn 10s
Bit rate mode : Constant
Bit rate : 93.5 Kbps
Channel(s) : 2 channels
Channel positions : Front: L R
Sampling rate : 48.0 KHz
Compression mode : Lossy
Stream size : 18.8 MiB (12%)