Subcategories

10,000 Maniacs - Campfire Songs: The Popular, Obscure & Unknown Recordings (2004) 2CD

Posted By: Designol
10,000 Maniacs - Campfire Songs: The Popular, Obscure & Unknown Recordings (2004) 2CD

10,000 Maniacs - Campfire Songs: The Popular, Obscure & Unknown Recordings (2004) 2CD
EAC | FLAC | Image (Cue&Log) ~ 756 Mb | Mp3 (CBR320) ~ 262 Mb | Scans ~ 303 Mb | Time: 01:54:06
Adult Alternative Rock, College Rock, Jangle Pop, Folk-Rock | Label: Elektra/Rhino | # 8122-73900-2

Campfire Songs: The Popular, Obscure and Unknown Recordings is a 2004 compilation album by 10,000 Maniacs featuring their biggest hits, b-sides and unknown recordings from the Natalie Merchant era.

Spanning 31 songs and two discs, one covering "The Most Popular Recordings" (aka "The Hits") and one covering "The Obscure & Unknown Recordings" (aka "The B-Sides and Cover Versions"), Rhino/Elektra's 2004 compilation Campfire Songs: The Popular, Obscure & Unknown Recordings of 10,000 Maniacs is as good a career overview as could be assembled. The hits disc may miss a minor charting single like "Few and Far Between," but it has all the songs of note, from the hits to album tracks. Meanwhile, the rarities are devoted pretty much to B-side covers in addition to four previously unreleased demos, the early outtake "Poppy Selling Man," plus their cover of Cat Stevens' "Peace Train," which was removed from latter-day editions of In My Tribe. There's enjoyable stuff on both discs – the singles "Like the Weather," "What's the Matter Here?," "Trouble Me," "Candy Everybody Wants," and "These Are Days" are very good indeed, laying the groundwork for adult alternative pop/rock, while the early demos on the second disc are livelier than most Maniacs material and the Michael Stipe duet on "To Sir With Love" is a priceless artifact from the height of Clinton optimism (which faded quite quickly). But even these moments have the Achilles' heel of a production that is far too big for the group's gentle simple songs. Overall this expertly assembled collection – which is as good as a 10,000 Maniacs anthology could be – is best as a time capsule, capturing the earnest, precious optimism and PC nature of American college rock before grunge came along and dirtied everything up.

Review by Stephen Thomas Erlewine, Allmusic.com

10,000 Maniacs - Campfire Songs: The Popular, Obscure & Unknown Recordings (2004) 2CD



Tracklist:

CD1 (The Most Popular Recordings):
01. Planned Obsolescence (04:27)
02. My Mother The War (03:32)
03. Tension (03:30)
04. Scorpio Rising (03:14)
05. Like The Weather (03:56)
06. Don't Talk (05:04)
07. What's The Matter Here? (04:51)
08. Hey Jack Kerouac (03:26)
09. Verdi Cries (04:24)
10. Trouble Me (03:13)
11. Poison In The Well (03:09)
12. You Happy Puppet (03:37)
13. Eat For Two (03:31)
14. Stockton Gala Days (04:21)
15. Candy Everybody Wants (03:07)
16. These Are Days (03:41)
17. Because The Night (Live - MTV Unplugged) (03:43)

CD2 (The Obscure & Unknown Recordings):
01. Poppy Selling Man (03:32)
02. Can't Ignore The Train (demo) (02:50)
03. Peace Train (03:28)
04. Wildwood Flower (01:52)
05. Hello In There (04:24)
06. To Sir With Love (04:15)
07. Every Day Is Like Sunday (03:12)
08. These Days (03:28)
09. I Hope That I Don't Fall In Love With You (03:39)
10. Starman (04:11)
11. Let The Mystery Be (03:08)
12. Noah's Dove (demo) (04:12)
13. Circle Dream (alternate lyrics demo) (03:23)
14. Eden (alternate lyrics demo) (03:33)


Exact Audio Copy V1.0 beta 3 from 29. August 2011

Отчёт EAC об извлечении, выполненном 9. января 2012, 22:25

10,000 Maniacs / Campfire Songs (Disc 1 - The Most Popular Recordings)

Дисковод: PIONEER BD-RW BDR-206D Adapter: 1 ID: 1

Режим чтения : Достоверность
Использование точного потока : Да
Отключение кэша аудио : Да
Использование указателей C2 : Нет

Коррекция смещения при чтении : 667
Способность читать области Lead-in и Lead-out : Нет
Заполнение пропущенных сэмплов тишиной : Да
Удаление блоков с тишиной в начале и конце : Нет
При вычислениях CRC использовались нулевые сэмплы : Да
Интерфейс : Встроенный Win32-интерфейс для Win NT/2000

Выходной формат : Пользовательский кодировщик
Выбранный битрейт : 1024 kBit/s
Качество : Высокий
Добавление ID3-тега : Нет
Утилита сжатия : H:\Program Files\Exact Audio Copy\FLAC\FLAC.EXE
Дополнительные параметры : -V -8 -T "Date=%year%" -T "Genre=%genre%" %source%


TOC извлечённого CD

Трек | Старт | Длительность | Начальный сектор | Конечный сектор
––––––––––––––––––––––––––––––––––-
1 | 0:00.00 | 4:28.74 | 0 | 20173
2 | 4:28.74 | 3:32.24 | 20174 | 36097
3 | 8:01.23 | 3:30.57 | 36098 | 51904
4 | 11:32.05 | 3:14.16 | 51905 | 66470
5 | 14:46.21 | 3:58.45 | 66471 | 84365
6 | 18:44.66 | 5:05.70 | 84366 | 107310
7 | 23:50.61 | 4:52.19 | 107311 | 129229
8 | 28:43.05 | 3:27.39 | 129230 | 144793
9 | 32:10.44 | 4:24.39 | 144794 | 164632
10 | 36:35.08 | 3:14.45 | 164633 | 179227
11 | 39:49.53 | 3:09.12 | 179228 | 193414
12 | 42:58.65 | 3:39.28 | 193415 | 209867
13 | 46:38.18 | 3:32.17 | 209868 | 225784
14 | 50:10.35 | 4:22.39 | 225785 | 245473
15 | 54:32.74 | 3:07.50 | 245474 | 259548
16 | 57:40.49 | 3:42.62 | 259549 | 276260
17 | 61:23.36 | 3:43.50 | 276261 | 293035


Характеристики диапазона извлечения и сообщения об ошибках

Выбранный диапазон

Имя файла L:\Audio Lossless\10000 Maniacs. 2004 Campfire Songs - The Popular, Obscure & Unknown Recordings of\CD 1 The Most Popular Recordings\10,000 Maniacs - Campfire Songs (Disc 1 - The Most Popular Recordings).wav

Пиковый уровень 98.8 %
Скорость извлечения 2.0 X
Качество диапазона 100.0 %
CRC теста 7C4B0182
CRC копии 7C4B0182
Копирование… OK

Ошибок не произошло


AccurateRip: сводка

Трек 1 : извлечено точно (доверие 2) [AF28BB74] (AR v2)
Трек 2 : извлечено точно (доверие 2) [0CA42650] (AR v2)
Трек 3 : извлечено точно (доверие 2) [3A428E5C] (AR v2)
Трек 4 : извлечено точно (доверие 2) [DB55E41B] (AR v2)
Трек 5 : извлечено точно (доверие 2) [230AF328] (AR v2)
Трек 6 : извлечено точно (доверие 2) [42B72E9A] (AR v2)
Трек 7 : извлечено точно (доверие 2) [207221DF] (AR v2)
Трек 8 : извлечено точно (доверие 2) [6A88D9AB] (AR v2)
Трек 9 : извлечено точно (доверие 2) [A46E9B06] (AR v2)
Трек 10 : извлечено точно (доверие 2) [45F8A306] (AR v2)
Трек 11 : извлечено точно (доверие 2) [DE246EC3] (AR v2)
Трек 12 : извлечено точно (доверие 2) [DFC5C2AD] (AR v2)
Трек 13 : извлечено точно (доверие 2) [A6175F04] (AR v2)
Трек 14 : извлечено точно (доверие 2) [E72D73E2] (AR v2)
Трек 15 : извлечено точно (доверие 2) [C6138CDC] (AR v2)
Трек 16 : извлечено точно (доверие 2) [88F9CF11] (AR v2)
Трек 17 : извлечено точно (доверие 2) [F5F018DD] (AR v2)

Все треки извлечены точно

Конец отчёта

==== Контрольная сумма отчёта E2D39364018B6E721DE4C5D84DDCF19A6092DEE15B48EA34D5C9407C7F00CE26 ====

[CUETools log; Date: 09.10.2017 20:12:27; Version: 2.1.4]
[CTDB TOCID: 2zyIKCSrfGg__sa.NDUhAuQ1tMQ-] found.
Track | CTDB Status
1 | (70/71) Accurately ripped
2 | (71/71) Accurately ripped
3 | (71/71) Accurately ripped
4 | (70/71) Accurately ripped
5 | (71/71) Accurately ripped
6 | (70/71) Accurately ripped
7 | (71/71) Accurately ripped
8 | (71/71) Accurately ripped
9 | (71/71) Accurately ripped
10 | (71/71) Accurately ripped
11 | (70/71) Accurately ripped
12 | (70/71) Accurately ripped
13 | (69/71) Accurately ripped
14 | (71/71) Accurately ripped
15 | (71/71) Accurately ripped
16 | (71/71) Accurately ripped
17 | (69/71) Accurately ripped
[AccurateRip ID: 0029026e-02058878-ed0f4311] found.
Track [ CRC | V2 ] Status
01 [b06976c9|af28bb74] (023+024/142) Accurately ripped
02 [3d85efcc|0ca42650] (023+024/141) Accurately ripped
03 [f5879ef0|3a428e5c] (024+024/141) Accurately ripped
04 [65d48315|db55e41b] (024+024/142) Accurately ripped
05 [ab2137fe|230af328] (024+024/144) Accurately ripped
06 [3c59b4c8|42b72e9a] (024+024/142) Accurately ripped
07 [9dbde0c7|207221df] (024+024/143) Accurately ripped
08 [f46d9109|6a88d9ab] (024+024/142) Accurately ripped
09 [f69d08b6|a46e9b06] (025+023/142) Accurately ripped
10 [681441d9|45f8a306] (024+024/144) Accurately ripped
11 [b1d1ad78|de246ec3] (024+024/139) Accurately ripped
12 [a713c988|dfc5c2ad] (025+024/143) Accurately ripped
13 [a211aea8|a6175f04] (026+023/142) Accurately ripped
14 [66bbc214|e72d73e2] (024+023/139) Accurately ripped
15 [9d3f62c5|c6138cdc] (025+024/147) Accurately ripped
16 [9d2aede0|88f9cf11] (025+023/145) Accurately ripped
17 [507e844a|f5f018dd] (024+022/137) Accurately ripped
Offsetted by -6:
01 [c828ad55] (049/142) Accurately ripped
02 [c4165364] (049/141) Accurately ripped
03 [32567b8e] (048/141) Accurately ripped
04 [f67a75e7] (049/142) Accurately ripped
05 [2ea06b04] (050/144) Accurately ripped
06 [48ed2f6a] (048/142) Accurately ripped
07 [b8cda08d] (049/143) Accurately ripped
08 [6f826727] (048/142) Accurately ripped
09 [b1c1fe48] (048/142) Accurately ripped
10 [33622155] (050/144) Accurately ripped
11 [e44e28ee] (047/139) Accurately ripped
12 [7ddf0972] (049/143) Accurately ripped
13 [5b5a1e08] (048/142) Accurately ripped
14 [d1b4aa36] (046/139) Accurately ripped
15 [57387371] (051/147) Accurately ripped
16 [502f5830] (050/145) Accurately ripped
17 [8976ce6c] (049/137) Accurately ripped

Track Peak [ CRC32 ] [W/O NULL] [ LOG ]
– 98,8 [7C4B0182] [E6D12CC0] CRC32
01 98,8 [AAB21726] [9152DE75]
02 95,1 [B0022E6D] [8FE427C3]
03 94,1 [5FB1777C] [F46BD5CF]
04 98,8 [C7E1AC6F] [B016D72A]
05 98,8 [14239127] [6996D9AD]
06 98,8 [0F1D8E9F] [2332F148]
07 98,8 [44D87C80] [1B64A5AD]
08 98,8 [13743532] [D330541E]
09 98,8 [33E4BCBF] [68B4996B]
10 98,8 [3FEA5FC2] [62318D97]
11 98,8 [568E50F7] [B5F035D4]
12 98,8 [853A38AB] [35A97B17]
13 98,8 [51FD4F56] [FC0098FF]
14 96,9 [CEBE4524] [42D85B40]
15 98,8 [1ADAA460] [2DB86983]
16 95,3 [34744A6A] [B93866A2]
17 98,8 [CDC0751A] [1F152CFC]

foobar2000 1.2 / Dynamic Range Meter 1.1.1
log date: 2017-10-09 20:11:10

––––––––––––––––––––––––––––––––––––––––
Analyzed: 10,000 Maniacs / Campfire Songs (Disc 1 - The Most Popular Recordings)
––––––––––––––––––––––––––––––––––––––––

DR Peak RMS Duration Track
––––––––––––––––––––––––––––––––––––––––
DR11 -0.10 dB -12.41 dB 4:29 01-Planned Obsolescence
DR10 -0.43 dB -11.73 dB 3:32 02-My Mother The War
DR10 -0.52 dB -11.24 dB 3:31 03-Tension
DR10 -0.10 dB -10.74 dB 3:14 04-Scorpio Rising
DR9 -0.10 dB -10.72 dB 3:59 05-Like The Weather
DR9 -0.10 dB -10.56 dB 5:06 06-Don't Talk
DR10 -0.10 dB -11.78 dB 4:52 07-What's The Matter Here?
DR9 -0.10 dB -10.80 dB 3:28 08-Hey Jack Kerouac
DR10 -0.10 dB -14.79 dB 4:25 09-Verdi Cries
DR10 -0.10 dB -12.26 dB 3:15 10-Trouble Me
DR10 -0.10 dB -11.25 dB 3:09 11-Poison In The Well
DR10 -0.10 dB -11.96 dB 3:39 12-You Happy Puppet
DR9 -0.10 dB -11.33 dB 3:32 13-Eat For Two
DR10 -0.27 dB -12.10 dB 4:23 14-Stockton Gala Days
DR11 -0.10 dB -12.29 dB 3:08 15-Candy Everybody Wants
DR10 -0.41 dB -12.35 dB 3:43 16-These Are Days
DR9 -0.10 dB -11.76 dB 3:44 17-Because The Night (Live - MTV Unplugged)
––––––––––––––––––––––––––––––––––––––––

Number of tracks: 17
Official DR value: DR10

Samplerate: 44100 Hz
Channels: 2
Bits per sample: 16
Bitrate: 937 kbps
Codec: FLAC
================================================================================


Exact Audio Copy V1.0 beta 3 from 29. August 2011

Отчёт EAC об извлечении, выполненном 9. января 2012, 20:58

10,000 Maniacs / Campfire Songs (Disc 2 - Obscure & Unknown Recordings)

Дисковод: PIONEER BD-RW BDR-206D Adapter: 1 ID: 1

Режим чтения : Достоверность
Использование точного потока : Да
Отключение кэша аудио : Да
Использование указателей C2 : Нет

Коррекция смещения при чтении : 667
Способность читать области Lead-in и Lead-out : Нет
Заполнение пропущенных сэмплов тишиной : Да
Удаление блоков с тишиной в начале и конце : Нет
При вычислениях CRC использовались нулевые сэмплы : Да
Интерфейс : Встроенный Win32-интерфейс для Win NT/2000

Выходной формат : Пользовательский кодировщик
Выбранный битрейт : 1024 kBit/s
Качество : Высокий
Добавление ID3-тега : Нет
Утилита сжатия : H:\Program Files\Exact Audio Copy\FLAC\FLAC.EXE
Дополнительные параметры : -V -8 -T "Date=%year%" -T "Genre=%genre%" %source%


TOC извлечённого CD

Трек | Старт | Длительность | Начальный сектор | Конечный сектор
––––––––––––––––––––––––––––––––––-
1 | 0:00.00 | 3:34.07 | 0 | 16056
2 | 3:34.07 | 2:52.49 | 16057 | 29005
3 | 6:26.56 | 3:28.15 | 29006 | 44620
4 | 9:54.71 | 1:53.20 | 44621 | 53115
5 | 11:48.16 | 4:26.52 | 53116 | 73117
6 | 16:14.68 | 4:16.67 | 73118 | 92384
7 | 20:31.60 | 3:15.28 | 92385 | 107037
8 | 23:47.13 | 3:28.02 | 107038 | 122639
9 | 27:15.15 | 3:39.17 | 122640 | 139081
10 | 30:54.32 | 4:14.20 | 139082 | 158151
11 | 35:08.52 | 3:10.15 | 158152 | 172416
12 | 38:18.67 | 4:12.03 | 172417 | 191319
13 | 42:30.70 | 3:25.25 | 191320 | 206719
14 | 45:56.20 | 3:33.32 | 206720 | 222726


Характеристики диапазона извлечения и сообщения об ошибках

Выбранный диапазон

Имя файла L:\Audio Lossless\10000 Maniacs. 2004 Campfire Songs - The Popular, Obscure & Unknown Recordings of\CD 2 The Obscure & Unknown Recordings\10,000 Maniacs - Campfire Songs (Disc 2 - Obscure & Unknown Recordings).wav

Пиковый уровень 98.8 %
Скорость извлечения 1.7 X
Качество диапазона 100.0 %
CRC теста FB8FC06C
CRC копии FB8FC06C
Копирование… OK

Ошибок не произошло


AccurateRip: сводка

Трек 1 : извлечено точно (доверие 2) [F3F446FE] (AR v2)
Трек 2 : извлечено точно (доверие 2) [99BA28C7] (AR v2)
Трек 3 : извлечено точно (доверие 2) [5E1A827F] (AR v2)
Трек 4 : извлечено точно (доверие 2) [A1C15816] (AR v2)
Трек 5 : извлечено точно (доверие 2) [28771328] (AR v2)
Трек 6 : извлечено точно (доверие 2) [AF663689] (AR v2)
Трек 7 : извлечено точно (доверие 2) [852D237C] (AR v2)
Трек 8 : извлечено точно (доверие 2) [191C8098] (AR v2)
Трек 9 : извлечено точно (доверие 2) [17F31849] (AR v2)
Трек 10 : извлечено точно (доверие 2) [C3F14ABA] (AR v2)
Трек 11 : извлечено точно (доверие 2) [DD51F154] (AR v2)
Трек 12 : извлечено точно (доверие 2) [04D93DBC] (AR v2)
Трек 13 : извлечено точно (доверие 2) [4768C144] (AR v2)
Трек 14 : извлечено точно (доверие 2) [BFDA5D04] (AR v2)

Все треки извлечены точно

Конец отчёта

==== Контрольная сумма отчёта 0972E9DA6BF932A86A7495B40AD433DFF9255BB3DB8BCFF98294877FA2248B6A ====

[CUETools log; Date: 09.10.2017 20:12:40; Version: 2.1.4]
[CTDB TOCID: NRe9Q7StrEYlyjBP7n.M4YDNS1w-] found.
Track | CTDB Status
1 | (72/73) Accurately ripped
2 | (72/73) Accurately ripped
3 | (71/73) Accurately ripped
4 | (71/73) Accurately ripped
5 | (73/73) Accurately ripped
6 | (71/73) Accurately ripped
7 | (73/73) Accurately ripped
8 | (72/73) Accurately ripped
9 | (73/73) Accurately ripped
10 | (73/73) Accurately ripped
11 | (73/73) Accurately ripped
12 | (73/73) Accurately ripped
13 | (70/73) Accurately ripped
14 | (70/73) Accurately ripped
[AccurateRip ID: 0018d8ef-010b7dc1-bb0b990e] found.
Track [ CRC | V2 ] Status
01 [ea32cf9c|f3f446fe] (023+023/141) Accurately ripped
02 [740fc3c5|99ba28c7] (025+023/142) Accurately ripped
03 [a767e4fe|5e1a827f] (025+023/143) Accurately ripped
04 [86765f96|a1c15816] (025+023/144) Accurately ripped
05 [cc4aa3fa|28771328] (025+023/144) Accurately ripped
06 [30d50794|af663689] (025+023/141) Accurately ripped
07 [9e48e58f|852d237c] (025+023/140) Accurately ripped
08 [a23a2fdf|191c8098] (025+023/137) Accurately ripped
09 [9b77d618|17f31849] (024+023/141) Accurately ripped
10 [6d730153|c3f14aba] (025+023/140) Accurately ripped
11 [e514842a|dd51f154] (025+022/141) Accurately ripped
12 [8a81812d|04d93dbc] (024+023/144) Accurately ripped
13 [dd2cdaea|4768c144] (025+023/143) Accurately ripped
14 [d3562632|bfda5d04] (022+022/136) Accurately ripped
Offsetted by -6:
01 [6963116e] (051/141) Accurately ripped
02 [8a06996f] (051/142) Accurately ripped
03 [2fd26ac8] (052/143) Accurately ripped
04 [c1a222fc] (052/144) Accurately ripped
05 [b352d206] (052/144) Accurately ripped
06 [54179d0c] (049/141) Accurately ripped
07 [7c7e2107] (049/140) Accurately ripped
08 [66c0338b] (048/137) Accurately ripped
09 [6fadcc8c] (049/141) Accurately ripped
10 [8fe48acb] (048/140) Accurately ripped
11 [a3ced24a] (050/141) Accurately ripped
12 [0aa72f3d] (051/144) Accurately ripped
13 [b1f874ae] (051/143) Accurately ripped
14 [53317a22] (049/136) Accurately ripped

Track Peak [ CRC32 ] [W/O NULL] [ LOG ]
– 98,8 [FB8FC06C] [ED398D96] CRC32
01 91,8 [707BAC13] [D5D92E75]
02 91,4 [0474F37D] [003D8F25]
03 98,8 [C6C96139] [A2478726]
04 96,0 [6F080AAB] [D5F7CCD0]
05 92,6 [5B06B0E0] [D12F4561]
06 98,8 [25E47DEA] [149B9B9B]
07 97,1 [F94EA1F2] [8DBB29B1]
08 92,0 [A561C6DA] [DBCA7725]
09 95,9 [CE20F284] [21DF7879]
10 98,8 [2B41154E] [8CC14131]
11 98,8 [886FD637] [634CADC8]
12 98,7 [9F2B2AE6] [7E46B259]
13 92,5 [7A88FDF1] [33957103]
14 98,6 [E426ABFC] [1762678B]

foobar2000 1.2 / Dynamic Range Meter 1.1.1
log date: 2017-10-09 20:11:42

––––––––––––––––––––––––––––––––––––––––
Analyzed: 10,000 Maniacs / Campfire Songs (Disc 2 - Obscure & Unknown Recordings)
––––––––––––––––––––––––––––––––––––––––

DR Peak RMS Duration Track
––––––––––––––––––––––––––––––––––––––––
DR10 -0.74 dB -11.79 dB 3:34 01-Poppy Selling Man
DR10 -0.78 dB -12.09 dB 2:53 02-Can't Ignore The Train (demo)
DR10 -0.10 dB -12.79 dB 3:28 03-Peace Train
DR11 -0.35 dB -12.70 dB 1:53 04-Wildwood Flower
DR10 -0.67 dB -12.57 dB 4:27 05-Hello In There
DR8 -0.10 dB -10.68 dB 4:17 06-To Sir With Love
DR8 -0.25 dB -10.09 dB 3:15 07-Every Day Is Like Sunday
DR10 -0.72 dB -13.28 dB 3:28 08-These Days
DR13 -0.36 dB -15.28 dB 3:39 09-I Hope That I Don't Fall In Love With You
DR12 -0.10 dB -14.18 dB 4:14 10-Starman
DR9 -0.10 dB -11.94 dB 3:10 11-Let The Mystery Be
DR10 -0.11 dB -12.18 dB 4:12 12-Noah's Dove (demo)
DR11 -0.67 dB -13.13 dB 3:25 13-Circle Dream (alternate lyrics demo)
DR10 -0.11 dB -12.74 dB 3:33 14-Eden (alternate lyrics demo)
––––––––––––––––––––––––––––––––––––––––

Number of tracks: 14
Official DR value: DR10

Samplerate: 44100 Hz
Channels: 2
Bits per sample: 16
Bitrate: 904 kbps
Codec: FLAC
================================================================================

10,000 Maniacs - Campfire Songs: The Popular, Obscure & Unknown Recordings (2004) 2CD

10,000 Maniacs - Campfire Songs: The Popular, Obscure & Unknown Recordings (2004) 2CD