Tags
Language
Tags

VA – 100 Hits Acoustic (2014)

Posted By: Rtax
VA – 100 Hits Acoustic (2014)

VA – 100 Hits Acoustic (2014)
EAC Rip | FLAC (tracks, cue, log, scans) 2.2 GB | MP3 CBR 320kbps - 849 MB
06:10:56 | Rock, Pop, Folk, Acoustic | Label: Demon Music Group

2014 five CD set. 100 Hits brings you the best classic acoustic tracks from the last six decades featuring artists such as the Coral, the Byrds, Albert Hammond and Johnny Cash.

Tracklist

CD1

01. The Coral - Pass It On (2:21)
02. The Fray - How to Save a Life (4:02)
03. Super Furry Animals - Hello Sunshine (2:55)
04. Beth Orton - She Cries Your Name (4:47)
05. Shawn Colvin - Sunny Came Home (4:26)
06. Cranes - Shining Road (3:52)
07. Grand Drive - Firefly (4:06)
08. Indigo Girls - Galileo (4:14)
09. Toploader - Achilles Heel (3:58)
10. Sandi Thom - I Wish I Was a Punk Rocker With Flowers in My Hair (2:34)
11. Rosanne Cash - My Baby Thinks He’s a Train (3:14)
12. Prefab Sprout - When Love Breaks Down (3:48)
13. Out of My Hair - In the Groove Again (3:37)
14. Nick Heyward - Whistle Down the Wind (3:41)
15. Midge Ure - Breathe (4:08)
16. Finley Quaye - Your Love Gets Sweeter (3:14)
17. Brian Kennedy - A Better Man (4:06)
18. Fairground Attraction - Perfect (3:37)
19. Sarah McLachlan - Adia (4:05)
20. The Mash - Suicide Is Painless (2:52)
Exact Audio Copy V1.6 from 23. October 2020

EAC extraction logfile from 29. July 2021, 17:29

Various Artists / 100 Hits: Acoustic CD1

Used drive : ASUS SDRW-08U7M-U Adapter: 0 ID: 0

Read mode : Secure
Utilize accurate stream : Yes
Defeat audio cache : Yes
Make use of C2 pointers : No

Read offset correction : 6
Overread into Lead-In and Lead-Out : No
Fill up missing offset samples with silence : Yes
Delete leading and trailing silent blocks : No
Null samples used in CRC calculations : Yes
Used interface : Installed external ASPI interface
Gap handling : Appended to previous track

Used output format : User Defined Encoder
Selected bitrate : 768 kBit/s
Quality : High
Add ID3 tag : No
Command line compressor : C:\Program Files (x86)\Exact Audio Copy\FLAC\FLAC.EXE
Additional command line options : -8 -V -T "TITLE=%title%" -T "ARTIST=%artist%" -T "ALBUMARTIST=%albumartist%" -T "ALBUM=%albumtitle%" -T "DATE=%year%" -T "TRACKNUMBER=%tracknr%" -T "TRACKTOTAL=%numtracks%" -T "GENRE=%genre%" -T "COMMENT=%comment%" -T "PERFORMER=%albuminterpret%" -T "COMPOSER=%composer%" %source% -o %dest%


TOC of the extracted CD

Track | Start | Length | Start sector | End sector
––––––––––––––––––––––––––––-
1 | 0:00.00 | 2:20.72 | 0 | 10571
2 | 2:20.72 | 4:01.45 | 10572 | 28691
3 | 6:22.42 | 2:55.27 | 28692 | 41843
4 | 9:17.69 | 4:47.36 | 41844 | 63404
5 | 14:05.30 | 4:26.08 | 63405 | 83362
6 | 18:31.38 | 3:51.73 | 83363 | 100760
7 | 22:23.36 | 4:05.56 | 100761 | 119191
8 | 26:29.17 | 4:13.72 | 119192 | 138238
9 | 30:43.14 | 3:58.01 | 138239 | 156089
10 | 34:41.15 | 2:34.20 | 156090 | 167659
11 | 37:15.35 | 3:14.36 | 167660 | 182245
12 | 40:29.71 | 3:48.05 | 182246 | 199350
13 | 44:18.01 | 3:37.09 | 199351 | 215634
14 | 47:55.10 | 3:41.37 | 215635 | 232246
15 | 51:36.47 | 4:07.53 | 232247 | 250824
16 | 55:44.25 | 3:13.65 | 250825 | 265364
17 | 58:58.15 | 4:05.71 | 265365 | 283810
18 | 63:04.11 | 3:36.55 | 283811 | 300065
19 | 66:40.66 | 4:04.57 | 300066 | 318422
20 | 70:45.48 | 2:51.42 | 318423 | 331289


Track 1

Filename D:\NNMclub gvm55 rips\VA - 100 Hits- Acoustic CD1 (2014)(Flac+.cue)\CD1\01. Pass It On.wav

Pre-gap length 0:00:02.00

Peak level 91.3 %
Extraction speed 1.7 X
Track quality 100.0 %
Test CRC AFB17613
Copy CRC AFB17613
Accurately ripped (confidence 3) [6F2C515B] (AR v2)
Copy OK

Track 2

Filename D:\NNMclub gvm55 rips\VA - 100 Hits- Acoustic CD1 (2014)(Flac+.cue)\CD1\02. How to Save a Life.wav

Pre-gap length 0:00:01.74

Peak level 92.1 %
Extraction speed 2.0 X
Track quality 100.0 %
Test CRC 39067B22
Copy CRC 39067B22
Accurately ripped (confidence 3) [A68CE2F3] (AR v2)
Copy OK

Track 3

Filename D:\NNMclub gvm55 rips\VA - 100 Hits- Acoustic CD1 (2014)(Flac+.cue)\CD1\03. Hello Sunshine.wav

Pre-gap length 0:00:01.74

Peak level 91.6 %
Extraction speed 2.0 X
Track quality 100.0 %
Test CRC 7D5E4202
Copy CRC 7D5E4202
Accurately ripped (confidence 3) [83081343] (AR v2)
Copy OK

Track 4

Filename D:\NNMclub gvm55 rips\VA - 100 Hits- Acoustic CD1 (2014)(Flac+.cue)\CD1\04. She Cries Your Name.wav

Pre-gap length 0:00:01.74

Peak level 90.0 %
Extraction speed 1.9 X
Track quality 99.9 %
Test CRC 819D01C2
Copy CRC 819D01C2
Accurately ripped (confidence 3) [607821FF] (AR v2)
Copy OK

Track 5

Filename D:\NNMclub gvm55 rips\VA - 100 Hits- Acoustic CD1 (2014)(Flac+.cue)\CD1\05. Sunny Came Home.wav

Pre-gap length 0:00:01.74

Peak level 92.2 %
Extraction speed 2.5 X
Track quality 100.0 %
Test CRC 747E023E
Copy CRC 747E023E
Accurately ripped (confidence 3) [1C5FB3F7] (AR v2)
Copy OK

Track 6

Filename D:\NNMclub gvm55 rips\VA - 100 Hits- Acoustic CD1 (2014)(Flac+.cue)\CD1\06. Shining Road.wav

Pre-gap length 0:00:01.74

Peak level 92.2 %
Extraction speed 2.6 X
Track quality 100.0 %
Test CRC D3DCFF1C
Copy CRC D3DCFF1C
Accurately ripped (confidence 3) [93C4BC48] (AR v2)
Copy OK

Track 7

Filename D:\NNMclub gvm55 rips\VA - 100 Hits- Acoustic CD1 (2014)(Flac+.cue)\CD1\07. Firefly.wav

Pre-gap length 0:00:01.74

Peak level 91.2 %
Extraction speed 2.8 X
Track quality 100.0 %
Test CRC 16265847
Copy CRC 16265847
Accurately ripped (confidence 3) [C83DA3AD] (AR v2)
Copy OK

Track 8

Filename D:\NNMclub gvm55 rips\VA - 100 Hits- Acoustic CD1 (2014)(Flac+.cue)\CD1\08. Galileo.wav

Pre-gap length 0:00:01.74

Peak level 92.2 %
Extraction speed 2.3 X
Track quality 99.9 %
Test CRC 79726090
Copy CRC 79726090
Accurately ripped (confidence 3) [0FF32421] (AR v2)
Copy OK

Track 9

Filename D:\NNMclub gvm55 rips\VA - 100 Hits- Acoustic CD1 (2014)(Flac+.cue)\CD1\09. Achilles Heel.wav

Pre-gap length 0:00:01.74

Peak level 92.2 %
Extraction speed 2.3 X
Track quality 99.9 %
Test CRC 4BE3980E
Copy CRC 4BE3980E
Accurately ripped (confidence 3) [D2D47419] (AR v2)
Copy OK

Track 10

Filename D:\NNMclub gvm55 rips\VA - 100 Hits- Acoustic CD1 (2014)(Flac+.cue)\CD1\10. I Wish I Was a Punk Rocker With Flowers in My Hair.wav

Pre-gap length 0:00:01.74

Peak level 92.2 %
Extraction speed 2.9 X
Track quality 100.0 %
Test CRC BF336FF5
Copy CRC BF336FF5
Accurately ripped (confidence 3) [F2AC3C2E] (AR v2)
Copy OK

Track 11

Filename D:\NNMclub gvm55 rips\VA - 100 Hits- Acoustic CD1 (2014)(Flac+.cue)\CD1\11. My Baby Thinks He’s a Train.wav

Pre-gap length 0:00:01.74

Peak level 92.2 %
Extraction speed 3.1 X
Track quality 100.0 %
Test CRC 496823B4
Copy CRC 496823B4
Accurately ripped (confidence 3) [3773242F] (AR v2)
Copy OK

Track 12

Filename D:\NNMclub gvm55 rips\VA - 100 Hits- Acoustic CD1 (2014)(Flac+.cue)\CD1\12. When Love Breaks Down.wav

Pre-gap length 0:00:01.74

Peak level 92.2 %
Extraction speed 2.5 X
Track quality 99.9 %
Test CRC B5260DE0
Copy CRC B5260DE0
Accurately ripped (confidence 3) [E4B8A96D] (AR v2)
Copy OK

Track 13

Filename D:\NNMclub gvm55 rips\VA - 100 Hits- Acoustic CD1 (2014)(Flac+.cue)\CD1\13. In the Groove Again.wav

Pre-gap length 0:00:01.74

Peak level 91.2 %
Extraction speed 2.5 X
Track quality 99.9 %
Test CRC 845ED03A
Copy CRC 845ED03A
Accurately ripped (confidence 3) [2059E923] (AR v2)
Copy OK

Track 14

Filename D:\NNMclub gvm55 rips\VA - 100 Hits- Acoustic CD1 (2014)(Flac+.cue)\CD1\14. Whistle Down the Wind.wav

Pre-gap length 0:00:01.74

Peak level 92.2 %
Extraction speed 3.4 X
Track quality 100.0 %
Test CRC 6D9CB234
Copy CRC 6D9CB234
Accurately ripped (confidence 3) [41873FFA] (AR v2)
Copy OK

Track 15

Filename D:\NNMclub gvm55 rips\VA - 100 Hits- Acoustic CD1 (2014)(Flac+.cue)\CD1\15. Breathe.wav

Pre-gap length 0:00:01.74

Peak level 92.2 %
Extraction speed 3.6 X
Track quality 100.0 %
Test CRC 5B6EFD6A
Copy CRC 5B6EFD6A
Accurately ripped (confidence 3) [D80B948F] (AR v2)
Copy OK

Track 16

Filename D:\NNMclub gvm55 rips\VA - 100 Hits- Acoustic CD1 (2014)(Flac+.cue)\CD1\16. Your Love Gets Sweeter.wav

Pre-gap length 0:00:01.74

Peak level 80.3 %
Extraction speed 2.6 X
Track quality 99.9 %
Test CRC 74B8EB77
Copy CRC 74B8EB77
Accurately ripped (confidence 3) [101861C0] (AR v2)
Copy OK

Track 17

Filename D:\NNMclub gvm55 rips\VA - 100 Hits- Acoustic CD1 (2014)(Flac+.cue)\CD1\17. A Better Man.wav

Pre-gap length 0:00:01.74

Peak level 76.0 %
Extraction speed 3.8 X
Track quality 100.0 %
Test CRC 7D5CB884
Copy CRC 7D5CB884
Accurately ripped (confidence 3) [99F43597] (AR v2)
Copy OK

Track 18

Filename D:\NNMclub gvm55 rips\VA - 100 Hits- Acoustic CD1 (2014)(Flac+.cue)\CD1\18. Perfect.wav

Pre-gap length 0:00:01.74

Peak level 92.2 %
Extraction speed 3.8 X
Track quality 100.0 %
Test CRC BC0D3BEA
Copy CRC BC0D3BEA
Accurately ripped (confidence 3) [9E4F4EA4] (AR v2)
Copy OK

Track 19

Filename D:\NNMclub gvm55 rips\VA - 100 Hits- Acoustic CD1 (2014)(Flac+.cue)\CD1\19. Adia.wav

Pre-gap length 0:00:01.73

Peak level 91.1 %
Extraction speed 3.9 X
Track quality 100.0 %
Test CRC DEBE02CD
Copy CRC DEBE02CD
Accurately ripped (confidence 3) [A3059080] (AR v2)
Copy OK

Track 20

Filename D:\NNMclub gvm55 rips\VA - 100 Hits- Acoustic CD1 (2014)(Flac+.cue)\CD1\20. Suicide Is Painless.wav

Pre-gap length 0:00:01.74

Peak level 92.2 %
Extraction speed 3.7 X
Track quality 100.0 %
Test CRC D5B3E29B
Copy CRC D5B3E29B
Accurately ripped (confidence 4) [47EF5EB4] (AR v2)
Copy OK


All tracks accurately ripped

No errors occurred

End of status report

–– CUETools DB Plugin V2.1.6

[CTDB TOCID: Kh2JgJHFknN0p46oUNhB98.Des0-] found
Submit result: Kh2JgJHFknN0p46oUNhB98.Des0- has been confirmed
Track | CTDB Status
1 | (17/17) Accurately ripped
2 | (17/17) Accurately ripped
3 | (17/17) Accurately ripped
4 | (17/17) Accurately ripped
5 | (17/17) Accurately ripped
6 | (17/17) Accurately ripped
7 | (17/17) Accurately ripped
8 | (17/17) Accurately ripped
9 | (17/17) Accurately ripped
10 | (17/17) Accurately ripped
11 | (17/17) Accurately ripped
12 | (17/17) Accurately ripped
13 | (17/17) Accurately ripped
14 | (17/17) Accurately ripped
15 | (17/17) Accurately ripped
16 | (17/17) Accurately ripped
17 | (17/17) Accurately ripped
18 | (16/17) Accurately ripped
19 | (14/17) Accurately ripped
20 | (15/17) Accurately ripped


==== Log checksum F5E2A226176B93A7A1F784DEDEEFC3771F1EE4350F0CDC0CB29C09A659EBB2FD ====


CD2

01. Soul Asylum - Runaway Train (4:27)
02. Sugar - If I Can’t Change Your Mind (3:20)
03. Shawn Mullins - Lullaby (4:15)
04. Super Furry Animals - Demons (5:13)
05. Prefab Sprout - Bonny (3:46)
06. Natalie Maines - Mother (5:53)
07. Sandi Thom - The Devil’s Beat (2:22)
08. Indigo Girls - Closer to Fine (4:02)
09. The Coral - Dreaming of You (2:22)
10. Shawn Colvin - One Cool Remove (3:19)
11. Sarah McLachlan - I Will Remember You (4:51)
12. Beth Orton - Someone’s Daughter (3:36)
13. Toploader - Only for a While (3:59)
14. The Zutons - Remember Me (3:18)
15. Nick Heyward - Blue Hat for a Blue Day (4:04)
16. Finley Quaye - Even After All (3:56)
17. Fairground Attraction - Find My Love (3:45)
18. Crash Test Dummies - Mmm Mmm Mmm Mmm (3:55)
19. Brian Kennedy - Captured (4:21)
20. Freiheit - Keeping the Dream Alive (4:13)
Exact Audio Copy V1.6 from 23. October 2020

EAC extraction logfile from 29. July 2021, 18:31

Various Artists / 100 Hits: Acoustic CD2

Used drive : ASUS SDRW-08U7M-U Adapter: 0 ID: 0

Read mode : Secure
Utilize accurate stream : Yes
Defeat audio cache : Yes
Make use of C2 pointers : No

Read offset correction : 6
Overread into Lead-In and Lead-Out : No
Fill up missing offset samples with silence : Yes
Delete leading and trailing silent blocks : No
Null samples used in CRC calculations : Yes
Used interface : Installed external ASPI interface
Gap handling : Appended to previous track

Used output format : User Defined Encoder
Selected bitrate : 768 kBit/s
Quality : High
Add ID3 tag : No
Command line compressor : C:\Program Files (x86)\Exact Audio Copy\FLAC\FLAC.EXE
Additional command line options : -8 -V -T "TITLE=%title%" -T "ARTIST=%artist%" -T "ALBUMARTIST=%albumartist%" -T "ALBUM=%albumtitle%" -T "DATE=%year%" -T "TRACKNUMBER=%tracknr%" -T "TRACKTOTAL=%numtracks%" -T "GENRE=%genre%" -T "COMMENT=%comment%" -T "PERFORMER=%albuminterpret%" -T "COMPOSER=%composer%" %source% -o %dest%


TOC of the extracted CD

Track | Start | Length | Start sector | End sector
––––––––––––––––––––––––––––-
1 | 0:00.00 | 4:27.04 | 0 | 20028
2 | 4:27.04 | 3:20.09 | 20029 | 35037
3 | 7:47.13 | 4:15.34 | 35038 | 54196
4 | 12:02.47 | 5:13.12 | 54197 | 77683
5 | 17:15.59 | 3:45.59 | 77684 | 94617
6 | 21:01.43 | 5:53.09 | 94618 | 121101
7 | 26:54.52 | 2:21.53 | 121102 | 131729
8 | 29:16.30 | 4:01.42 | 131730 | 149846
9 | 33:17.72 | 2:21.50 | 149847 | 160471
10 | 35:39.47 | 3:19.14 | 160472 | 175410
11 | 38:58.61 | 4:50.65 | 175411 | 197225
12 | 43:49.51 | 3:35.66 | 197226 | 213416
13 | 47:25.42 | 3:59.04 | 213417 | 231345
14 | 51:24.46 | 3:18.27 | 231346 | 246222
15 | 54:42.73 | 4:03.50 | 246223 | 264497
16 | 58:46.48 | 3:56.18 | 264498 | 282215
17 | 62:42.66 | 3:45.36 | 282216 | 299126
18 | 66:28.27 | 3:55.07 | 299127 | 316758
19 | 70:23.34 | 4:20.70 | 316759 | 336328
20 | 74:44.29 | 4:12.65 | 336329 | 355293


Track 1

Filename D:\NNMclub gvm55 rips\VA - 100 Hits- Acoustic CD2 (2014)(Flac+.cue)\CD1\01. Runaway Train.wav

Pre-gap length 0:00:02.00

Peak level 90.9 %
Extraction speed 3.0 X
Track quality 100.0 %
Test CRC CAB8330C
Copy CRC CAB8330C
Accurately ripped (confidence 4) [881A9846] (AR v2)
Copy OK

Track 2

Filename D:\NNMclub gvm55 rips\VA - 100 Hits- Acoustic CD2 (2014)(Flac+.cue)\CD1\02. If I Can’t Change Your Mind.wav

Pre-gap length 0:00:01.74

Peak level 63.1 %
Extraction speed 3.2 X
Track quality 100.0 %
Test CRC EABB1036
Copy CRC EABB1036
Accurately ripped (confidence 4) [3A116C15] (AR v2)
Copy OK

Track 3

Filename D:\NNMclub gvm55 rips\VA - 100 Hits- Acoustic CD2 (2014)(Flac+.cue)\CD1\03. Lullaby.wav

Pre-gap length 0:00:01.74

Peak level 61.0 %
Extraction speed 3.5 X
Track quality 100.0 %
Test CRC 6A4D55DF
Copy CRC 6A4D55DF
Accurately ripped (confidence 4) [07D0F235] (AR v2)
Copy OK

Track 4

Filename D:\NNMclub gvm55 rips\VA - 100 Hits- Acoustic CD2 (2014)(Flac+.cue)\CD1\04. Demons.wav

Pre-gap length 0:00:01.74

Peak level 77.0 %
Extraction speed 3.9 X
Track quality 100.0 %
Test CRC 02E4F8F7
Copy CRC 02E4F8F7
Accurately ripped (confidence 4) [32AAD5C2] (AR v2)
Copy OK

Track 5

Filename D:\NNMclub gvm55 rips\VA - 100 Hits- Acoustic CD2 (2014)(Flac+.cue)\CD1\05. Bonny.wav

Pre-gap length 0:00:01.74

Peak level 92.3 %
Extraction speed 4.0 X
Track quality 100.0 %
Test CRC 4466BBA7
Copy CRC 4466BBA7
Accurately ripped (confidence 4) [E2494863] (AR v2)
Copy OK

Track 6

Filename D:\NNMclub gvm55 rips\VA - 100 Hits- Acoustic CD2 (2014)(Flac+.cue)\CD1\06. Mother.wav

Pre-gap length 0:00:01.74

Peak level 83.2 %
Extraction speed 4.5 X
Track quality 100.0 %
Test CRC E60EF424
Copy CRC E60EF424
Accurately ripped (confidence 4) [BE287273] (AR v2)
Copy OK

Track 7

Filename D:\NNMclub gvm55 rips\VA - 100 Hits- Acoustic CD2 (2014)(Flac+.cue)\CD1\07. The Devil’s Beat.wav

Pre-gap length 0:00:01.74

Peak level 71.5 %
Extraction speed 4.1 X
Track quality 100.0 %
Test CRC 0C796E00
Copy CRC 0C796E00
Accurately ripped (confidence 4) [7B9FB111] (AR v2)
Copy OK

Track 8

Filename D:\NNMclub gvm55 rips\VA - 100 Hits- Acoustic CD2 (2014)(Flac+.cue)\CD1\08. Closer to Fine.wav

Pre-gap length 0:00:01.74

Peak level 92.2 %
Extraction speed 4.6 X
Track quality 100.0 %
Test CRC 61E7012F
Copy CRC 61E7012F
Accurately ripped (confidence 4) [FA67D1FC] (AR v2)
Copy OK

Track 9

Filename D:\NNMclub gvm55 rips\VA - 100 Hits- Acoustic CD2 (2014)(Flac+.cue)\CD1\09. Dreaming of You.wav

Pre-gap length 0:00:01.74

Peak level 92.3 %
Extraction speed 4.3 X
Track quality 100.0 %
Test CRC F8203D79
Copy CRC F8203D79
Accurately ripped (confidence 4) [25CBC776] (AR v2)
Copy OK

Track 10

Filename D:\NNMclub gvm55 rips\VA - 100 Hits- Acoustic CD2 (2014)(Flac+.cue)\CD1\10. One Cool Remove.wav

Pre-gap length 0:00:01.74

Peak level 92.3 %
Extraction speed 3.9 X
Track quality 99.9 %
Test CRC 86DA25DF
Copy CRC 86DA25DF
Accurately ripped (confidence 4) [821CCA41] (AR v2)
Copy OK

Track 11

Filename D:\NNMclub gvm55 rips\VA - 100 Hits- Acoustic CD2 (2014)(Flac+.cue)\CD1\11. I Will Remember You.wav

Pre-gap length 0:00:01.74

Peak level 92.3 %
Extraction speed 5.1 X
Track quality 100.0 %
Test CRC 7518B104
Copy CRC 7518B104
Accurately ripped (confidence 4) [5ADE1AA0] (AR v2)
Copy OK

Track 12

Filename D:\NNMclub gvm55 rips\VA - 100 Hits- Acoustic CD2 (2014)(Flac+.cue)\CD1\12. Someone’s Daughter.wav

Pre-gap length 0:00:01.74

Peak level 91.3 %
Extraction speed 5.1 X
Track quality 100.0 %
Test CRC 81D768EB
Copy CRC 81D768EB
Accurately ripped (confidence 4) [96E999A6] (AR v2)
Copy OK

Track 13

Filename D:\NNMclub gvm55 rips\VA - 100 Hits- Acoustic CD2 (2014)(Flac+.cue)\CD1\13. Only for a While.wav

Pre-gap length 0:00:01.74

Peak level 81.3 %
Extraction speed 4.5 X
Track quality 99.9 %
Test CRC FDE8BE38
Copy CRC FDE8BE38
Accurately ripped (confidence 4) [622C570C] (AR v2)
Copy OK

Track 14

Filename D:\NNMclub gvm55 rips\VA - 100 Hits- Acoustic CD2 (2014)(Flac+.cue)\CD1\14. Remember Me.wav

Pre-gap length 0:00:01.74

Peak level 72.5 %
Extraction speed 5.3 X
Track quality 100.0 %
Test CRC CF66AEDF
Copy CRC CF66AEDF
Accurately ripped (confidence 4) [F8A1D972] (AR v2)
Copy OK

Track 15

Filename D:\NNMclub gvm55 rips\VA - 100 Hits- Acoustic CD2 (2014)(Flac+.cue)\CD1\15. Blue Hat for a Blue Day.wav

Pre-gap length 0:00:01.74

Peak level 92.3 %
Extraction speed 4.7 X
Track quality 99.9 %
Test CRC 2C576B0D
Copy CRC 2C576B0D
Accurately ripped (confidence 4) [68CCF415] (AR v2)
Copy OK

Track 16

Filename D:\NNMclub gvm55 rips\VA - 100 Hits- Acoustic CD2 (2014)(Flac+.cue)\CD1\16. Even After All.wav

Pre-gap length 0:00:01.74

Peak level 91.6 %
Extraction speed 5.7 X
Track quality 100.0 %
Test CRC 2F2560AA
Copy CRC 2F2560AA
Accurately ripped (confidence 4) [CD74276A] (AR v2)
Copy OK

Track 17

Filename D:\NNMclub gvm55 rips\VA - 100 Hits- Acoustic CD2 (2014)(Flac+.cue)\CD1\17. Find My Love.wav

Pre-gap length 0:00:02.00

Peak level 92.3 %
Extraction speed 5.8 X
Track quality 100.0 %
Test CRC D525AA55
Copy CRC D525AA55
Accurately ripped (confidence 4) [5C77761D] (AR v2)
Copy OK

Track 18

Filename D:\NNMclub gvm55 rips\VA - 100 Hits- Acoustic CD2 (2014)(Flac+.cue)\CD1\18. Mmm Mmm Mmm Mmm.wav

Pre-gap length 0:00:01.74

Peak level 80.2 %
Extraction speed 6.0 X
Track quality 100.0 %
Test CRC C879B45D
Copy CRC C879B45D
Accurately ripped (confidence 4) [907C6A71] (AR v2)
Copy OK

Track 19

Filename D:\NNMclub gvm55 rips\VA - 100 Hits- Acoustic CD2 (2014)(Flac+.cue)\CD1\19. Captured.wav

Pre-gap length 0:00:01.74

Peak level 92.3 %
Extraction speed 5.2 X
Track quality 99.9 %
Test CRC 644ABC56
Copy CRC 644ABC56
Accurately ripped (confidence 4) [F77E9561] (AR v2)
Copy OK

Track 20

Filename D:\NNMclub gvm55 rips\VA - 100 Hits- Acoustic CD2 (2014)(Flac+.cue)\CD1\20. Keeping the Dream Alive.wav

Pre-gap length 0:00:01.74

Peak level 92.3 %
Extraction speed 6.2 X
Track quality 100.0 %
Test CRC E29A4063
Copy CRC E29A4063
Accurately ripped (confidence 4) [53968D63] (AR v2)
Copy OK


All tracks accurately ripped

No errors occurred

End of status report

–– CUETools DB Plugin V2.1.6

[CTDB TOCID: VjYISUkruTjg2o2YSJQ0Yk3.ES0-] found
Submit result: VjYISUkruTjg2o2YSJQ0Yk3.ES0- has been confirmed
Track | CTDB Status
1 | (20/20) Accurately ripped
2 | (20/20) Accurately ripped
3 | (20/20) Accurately ripped
4 | (20/20) Accurately ripped
5 | (20/20) Accurately ripped
6 | (20/20) Accurately ripped
7 | (20/20) Accurately ripped
8 | (20/20) Accurately ripped
9 | (20/20) Accurately ripped
10 | (20/20) Accurately ripped
11 | (20/20) Accurately ripped
12 | (20/20) Accurately ripped
13 | (20/20) Accurately ripped
14 | (20/20) Accurately ripped
15 | (20/20) Accurately ripped
16 | (20/20) Accurately ripped
17 | (20/20) Accurately ripped
18 | (20/20) Accurately ripped
19 | (20/20) Accurately ripped
20 | (19/20) Accurately ripped


==== Log checksum B018AE05ABF1B7CD8D623676E1DEE6086C2835CBAB6FAE2900551269574ECB7B ====


CD3

01. Bruce Hornsby & The Range - The Way It Is (4:58)
02. The Byrds - You Ain’t Going Nowhere (2:35)
03. Colin Blunstone - How Could We Dare to Be Wrong (3:24)
04. Electric Light Orchestra - Strange Magic (4:08)
05. Dan Fogelberg - Longer (3:15)
06. Albert Hammond - The Air That I Breathe (3:49)
07. Harry Nilsson - I Guess the Lord Must Be in New York City (2:45)
08. Jim Croce - I Got a Name (3:12)
09. Dave Mason - We Just Disagree (3:01)
10. Toto - I Will Remember (6:07)
11. The Youngbloods - (Let’s) Get Together (4:37)
12. Sutherland Brothers & Quiver - Arms of Mary (2:38)
13. Spirit - Taurus (2:39)
14. Smokie - Living Next Door to Alice (3:29)
15. Michael Nesmith - Different Drum (3:02)
16. Laura Nyro - Stoned Soul Picnic (3:50)
17. Blood, Sweat & Tears - Hi-De-Ho (4:25)
18. The Alan Parsons Project - Don’t Answer Me (4:13)
19. Nancy Wilson - Sandy (4:41)
20. Willie Nelson - Georgia on My Mind (4:19)
Exact Audio Copy V1.6 from 23. October 2020

EAC extraction logfile from 29. July 2021, 21:26

Various Artists / 100 Hits: Acoustic CD3

Used drive : ASUS SDRW-08U7M-U Adapter: 0 ID: 0

Read mode : Secure
Utilize accurate stream : Yes
Defeat audio cache : Yes
Make use of C2 pointers : No

Read offset correction : 6
Overread into Lead-In and Lead-Out : No
Fill up missing offset samples with silence : Yes
Delete leading and trailing silent blocks : No
Null samples used in CRC calculations : Yes
Used interface : Installed external ASPI interface
Gap handling : Appended to previous track

Used output format : User Defined Encoder
Selected bitrate : 768 kBit/s
Quality : High
Add ID3 tag : No
Command line compressor : C:\Program Files (x86)\Exact Audio Copy\FLAC\FLAC.EXE
Additional command line options : -8 -V -T "TITLE=%title%" -T "ARTIST=%artist%" -T "ALBUMARTIST=%albumartist%" -T "ALBUM=%albumtitle%" -T "DATE=%year%" -T "TRACKNUMBER=%tracknr%" -T "TRACKTOTAL=%numtracks%" -T "GENRE=%genre%" -T "COMMENT=%comment%" -T "PERFORMER=%albuminterpret%" -T "COMPOSER=%composer%" %source% -o %dest%


TOC of the extracted CD

Track | Start | Length | Start sector | End sector
––––––––––––––––––––––––––––-
1 | 0:00.00 | 4:58.09 | 0 | 22358
2 | 4:58.09 | 2:34.60 | 22359 | 33968
3 | 7:32.69 | 3:24.15 | 33969 | 49283
4 | 10:57.09 | 4:08.33 | 49284 | 67916
5 | 15:05.42 | 3:14.43 | 67917 | 82509
6 | 18:20.10 | 3:48.39 | 82510 | 99648
7 | 22:08.49 | 2:44.68 | 99649 | 112016
8 | 24:53.42 | 3:12.30 | 112017 | 126446
9 | 28:05.72 | 3:01.21 | 126447 | 140042
10 | 31:07.18 | 6:07.03 | 140043 | 167570
11 | 37:14.21 | 4:37.25 | 167571 | 188370
12 | 41:51.46 | 2:37.69 | 188371 | 200214
13 | 44:29.40 | 2:38.44 | 200215 | 212108
14 | 47:08.09 | 3:28.64 | 212109 | 227772
15 | 50:36.73 | 3:02.07 | 227773 | 241429
16 | 53:39.05 | 3:50.19 | 241430 | 258698
17 | 57:29.24 | 4:25.16 | 258699 | 278589
18 | 61:54.40 | 4:12.73 | 278590 | 297562
19 | 66:07.38 | 4:41.15 | 297563 | 318652
20 | 70:48.53 | 4:18.63 | 318653 | 338065


Track 1

Filename D:\NNMclub gvm55 rips\VA - 100 Hits- Acoustic CD3 (2014)(Flac+.cue)\CD1\01. The Way It Is.wav

Pre-gap length 0:00:02.00

Peak level 92.1 %
Extraction speed 2.6 X
Track quality 99.9 %
Test CRC 6CAB41B3
Copy CRC 6CAB41B3
Accurately ripped (confidence 5) [1FFDBCC3] (AR v2)
Copy OK

Track 2

Filename D:\NNMclub gvm55 rips\VA - 100 Hits- Acoustic CD3 (2014)(Flac+.cue)\CD1\02. You Ain’t Going Nowhere.wav

Pre-gap length 0:00:01.74

Peak level 92.1 %
Extraction speed 2.9 X
Track quality 100.0 %
Test CRC 58BEF1DE
Copy CRC 58BEF1DE
Accurately ripped (confidence 5) [D4D10744] (AR v2)
Copy OK

Track 3

Filename D:\NNMclub gvm55 rips\VA - 100 Hits- Acoustic CD3 (2014)(Flac+.cue)\CD1\03. How Could We Dare to Be Wrong.wav

Pre-gap length 0:00:01.74

Peak level 84.0 %
Extraction speed 2.7 X
Track quality 99.9 %
Test CRC 59D96BCB
Copy CRC 59D96BCB
Accurately ripped (confidence 5) [07E47E26] (AR v2)
Copy OK

Track 4

Filename D:\NNMclub gvm55 rips\VA - 100 Hits- Acoustic CD3 (2014)(Flac+.cue)\CD1\04. Strange Magic.wav

Pre-gap length 0:00:01.74

Peak level 92.1 %
Extraction speed 3.6 X
Track quality 100.0 %
Test CRC 490E15D2
Copy CRC 490E15D2
Accurately ripped (confidence 5) [2B764CA0] (AR v2)
Copy OK

Track 5

Filename D:\NNMclub gvm55 rips\VA - 100 Hits- Acoustic CD3 (2014)(Flac+.cue)\CD1\05. Longer.wav

Pre-gap length 0:00:01.74

Peak level 92.1 %
Extraction speed 3.6 X
Track quality 100.0 %
Test CRC D4C1EE8E
Copy CRC D4C1EE8E
Accurately ripped (confidence 5) [B4F1F670] (AR v2)
Copy OK

Track 6

Filename D:\NNMclub gvm55 rips\VA - 100 Hits- Acoustic CD3 (2014)(Flac+.cue)\CD1\06. The Air That I Breathe.wav

Pre-gap length 0:00:01.74

Peak level 91.2 %
Extraction speed 4.0 X
Track quality 100.0 %
Test CRC 3365EC7B
Copy CRC 3365EC7B
Accurately ripped (confidence 5) [B1979B25] (AR v2)
Copy OK

Track 7

Filename D:\NNMclub gvm55 rips\VA - 100 Hits- Acoustic CD3 (2014)(Flac+.cue)\CD1\07. I Guess the Lord Must Be in New York City.wav

Pre-gap length 0:00:01.74

Peak level 92.1 %
Extraction speed 3.9 X
Track quality 100.0 %
Test CRC F55D734D
Copy CRC F55D734D
Accurately ripped (confidence 5) [7F6AB39D] (AR v2)
Copy OK

Track 8

Filename D:\NNMclub gvm55 rips\VA - 100 Hits- Acoustic CD3 (2014)(Flac+.cue)\CD1\08. I Got a Name.wav

Pre-gap length 0:00:01.74

Peak level 92.1 %
Extraction speed 4.2 X
Track quality 100.0 %
Test CRC EEE5ECDD
Copy CRC EEE5ECDD
Accurately ripped (confidence 5) [78B157BC] (AR v2)
Copy OK

Track 9

Filename D:\NNMclub gvm55 rips\VA - 100 Hits- Acoustic CD3 (2014)(Flac+.cue)\CD1\09. We Just Disagree.wav

Pre-gap length 0:00:01.74

Peak level 92.1 %
Extraction speed 3.4 X
Track quality 99.9 %
Test CRC 18E26976
Copy CRC 18E26976
Accurately ripped (confidence 5) [9D5B1C9B] (AR v2)
Copy OK

Track 10

Filename D:\NNMclub gvm55 rips\VA - 100 Hits- Acoustic CD3 (2014)(Flac+.cue)\CD1\10. I Will Remember.wav

Pre-gap length 0:00:01.74

Peak level 92.1 %
Extraction speed 4.8 X
Track quality 100.0 %
Test CRC 899F0BF3
Copy CRC 899F0BF3
Accurately ripped (confidence 5) [3FE0A7DB] (AR v2)
Copy OK

Track 11

Filename D:\NNMclub gvm55 rips\VA - 100 Hits- Acoustic CD3 (2014)(Flac+.cue)\CD1\11. (Let’s) Get Together.wav

Pre-gap length 0:00:01.74

Peak level 89.6 %
Extraction speed 4.9 X
Track quality 100.0 %
Test CRC A2209EC9
Copy CRC A2209EC9
Accurately ripped (confidence 5) [6E98FADB] (AR v2)
Copy OK

Track 12

Filename D:\NNMclub gvm55 rips\VA - 100 Hits- Acoustic CD3 (2014)(Flac+.cue)\CD1\12. Arms of Mary.wav

Pre-gap length 0:00:01.74

Peak level 92.1 %
Extraction speed 4.7 X
Track quality 100.0 %
Test CRC 6F7CB2A9
Copy CRC 6F7CB2A9
Accurately ripped (confidence 5) [7F892BCC] (AR v2)
Copy OK

Track 13

Filename D:\NNMclub gvm55 rips\VA - 100 Hits- Acoustic CD3 (2014)(Flac+.cue)\CD1\13. Taurus.wav

Pre-gap length 0:00:01.74

Peak level 92.1 %
Extraction speed 4.8 X
Track quality 100.0 %
Test CRC C0C78090
Copy CRC C0C78090
Accurately ripped (confidence 5) [D630C77F] (AR v2)
Copy OK

Track 14

Filename D:\NNMclub gvm55 rips\VA - 100 Hits- Acoustic CD3 (2014)(Flac+.cue)\CD1\14. Living Next Door to Alice.wav

Pre-gap length 0:00:01.74

Peak level 91.3 %
Extraction speed 5.1 X
Track quality 100.0 %
Test CRC 39C163D7
Copy CRC 39C163D7
Accurately ripped (confidence 5) [C9C9F087] (AR v2)
Copy OK

Track 15

Filename D:\NNMclub gvm55 rips\VA - 100 Hits- Acoustic CD3 (2014)(Flac+.cue)\CD1\15. Different Drum.wav

Pre-gap length 0:00:01.74

Peak level 82.3 %
Extraction speed 5.1 X
Track quality 100.0 %
Test CRC 54890514
Copy CRC 54890514
Accurately ripped (confidence 5) [4F4F791B] (AR v2)
Copy OK

Track 16

Filename D:\NNMclub gvm55 rips\VA - 100 Hits- Acoustic CD3 (2014)(Flac+.cue)\CD1\16. Stoned Soul Picnic.wav

Pre-gap length 0:00:01.74

Peak level 92.1 %
Extraction speed 5.4 X
Track quality 100.0 %
Test CRC 674DFB93
Copy CRC 674DFB93
Accurately ripped (confidence 5) [423861F2] (AR v2)
Copy OK

Track 17

Filename D:\NNMclub gvm55 rips\VA - 100 Hits- Acoustic CD3 (2014)(Flac+.cue)\CD1\17. Hi-De-Ho.wav

Pre-gap length 0:00:01.74

Peak level 92.1 %
Extraction speed 5.7 X
Track quality 100.0 %
Test CRC 129D0D91
Copy CRC 129D0D91
Accurately ripped (confidence 5) [6724749D] (AR v2)
Copy OK

Track 18

Filename D:\NNMclub gvm55 rips\VA - 100 Hits- Acoustic CD3 (2014)(Flac+.cue)\CD1\18. Don’t Answer Me.wav

Pre-gap length 0:00:02.00

Peak level 92.1 %
Extraction speed 4.9 X
Track quality 99.9 %
Test CRC FEB9E97E
Copy CRC FEB9E97E
Accurately ripped (confidence 5) [710FE3DF] (AR v2)
Copy OK

Track 19

Filename D:\NNMclub gvm55 rips\VA - 100 Hits- Acoustic CD3 (2014)(Flac+.cue)\CD1\19. Sandy.wav

Pre-gap length 0:00:01.74

Peak level 91.0 %
Extraction speed 5.1 X
Track quality 99.9 %
Test CRC 9C5E7ECD
Copy CRC 9C5E7ECD
Accurately ripped (confidence 5) [FCCFC6E7] (AR v2)
Copy OK

Track 20

Filename D:\NNMclub gvm55 rips\VA - 100 Hits- Acoustic CD3 (2014)(Flac+.cue)\CD1\20. Georgia on My Mind.wav

Pre-gap length 0:00:01.74

Peak level 92.0 %
Extraction speed 6.0 X
Track quality 100.0 %
Test CRC 647D2300
Copy CRC 647D2300
Accurately ripped (confidence 5) [6016EE0D] (AR v2)
Copy OK


All tracks accurately ripped

No errors occurred

End of status report

–– CUETools DB Plugin V2.1.6

[CTDB TOCID: uvkToi3j.bmoQ._6i48z.QhJ528-] found
Submit result: uvkToi3j.bmoQ._6i48z.QhJ528- has been confirmed
Track | CTDB Status
1 | (15/15) Accurately ripped
2 | (15/15) Accurately ripped
3 | (15/15) Accurately ripped
4 | (15/15) Accurately ripped
5 | (15/15) Accurately ripped
6 | (15/15) Accurately ripped
7 | (15/15) Accurately ripped
8 | (15/15) Accurately ripped
9 | (15/15) Accurately ripped
10 | (15/15) Accurately ripped
11 | (15/15) Accurately ripped
12 | (15/15) Accurately ripped
13 | (15/15) Accurately ripped
14 | (15/15) Accurately ripped
15 | (15/15) Accurately ripped
16 | (15/15) Accurately ripped
17 | (15/15) Accurately ripped
18 | (15/15) Accurately ripped
19 | (15/15) Accurately ripped
20 | (15/15) Accurately ripped


==== Log checksum D0EC08C66BCA2F7AA50F28C9A43E16E43B72F21ECD773017850CEBB4D0E4C8CF ====


CD4

01. Santana - Samba pa ti (4:45)
02. Melanie - What Have They Done to My Song, Ma? (4:07)
03. Sutherland Brothers & Quiver - Easy Come Easy Go (3:36)
04. Blood, Sweat & Tears - You’ve Made Me So Very Happy (3:31)
05. Toto - I Won’t Hold You Back (4:56)
06. Smokie - If You Think You Know How to Love Me (3:27)
07. Nancy Wilson - We Meet Again (3:05)
08. The Alan Parsons Project - Old & Wise (4:10)
09. Albert Hammond - When I Need You (4:29)
10. Colin Blunstone - I Don’t Believe in Miracles (3:02)
11. Pete Seeger with Sweet Honey in the Rock - This Land Is Your Land (3:46)
12. Laura Nyro - Up on the Roof (3:15)
13. Nina Simone - Here Comes the Sun (3:36)
14. Harry Nilsson - Coconut (3:52)
15. Waylon Jennings - Green River (2:28)
16. John Denver - Annie’s Song (3:01)
17. Johnny Cash - It Ain’t Me Babe (3:03)
18. Kris Kristofferson - Sunday Mornin’ Comin’ Down (4:31)
19. Dolly Parton - I Will Always Love You (2:55)
20. Dave Brubeck - Unsquare Dance (2:00)
Exact Audio Copy V1.6 from 23. October 2020

EAC extraction logfile from 29. July 2021, 22:13

Various Artists / 100 Hits: Acoustic CD4

Used drive : ASUS SDRW-08U7M-U Adapter: 0 ID: 0

Read mode : Secure
Utilize accurate stream : Yes
Defeat audio cache : Yes
Make use of C2 pointers : No

Read offset correction : 6
Overread into Lead-In and Lead-Out : No
Fill up missing offset samples with silence : Yes
Delete leading and trailing silent blocks : No
Null samples used in CRC calculations : Yes
Used interface : Installed external ASPI interface
Gap handling : Appended to previous track

Used output format : User Defined Encoder
Selected bitrate : 768 kBit/s
Quality : High
Add ID3 tag : No
Command line compressor : C:\Program Files (x86)\Exact Audio Copy\FLAC\FLAC.EXE
Additional command line options : -8 -V -T "TITLE=%title%" -T "ARTIST=%artist%" -T "ALBUMARTIST=%albumartist%" -T "ALBUM=%albumtitle%" -T "DATE=%year%" -T "TRACKNUMBER=%tracknr%" -T "TRACKTOTAL=%numtracks%" -T "GENRE=%genre%" -T "COMMENT=%comment%" -T "PERFORMER=%albuminterpret%" -T "COMPOSER=%composer%" %source% -o %dest%


TOC of the extracted CD

Track | Start | Length | Start sector | End sector
––––––––––––––––––––––––––––-
1 | 0:00.00 | 4:44.64 | 0 | 21363
2 | 4:44.64 | 4:06.74 | 21364 | 39887
3 | 8:51.63 | 3:35.48 | 39888 | 56060
4 | 12:27.36 | 3:30.47 | 56061 | 71857
5 | 15:58.08 | 4:56.27 | 71858 | 94084
6 | 20:54.35 | 3:26.46 | 94085 | 109580
7 | 24:21.06 | 3:04.68 | 109581 | 123448
8 | 27:25.74 | 4:10.30 | 123449 | 142228
9 | 31:36.29 | 4:29.04 | 142229 | 162407
10 | 36:05.33 | 3:01.69 | 162408 | 176051
11 | 39:07.27 | 3:46.32 | 176052 | 193033
12 | 42:53.59 | 3:14.45 | 193034 | 207628
13 | 46:08.29 | 3:35.71 | 207629 | 223824
14 | 49:44.25 | 3:52.11 | 223825 | 241235
15 | 53:36.36 | 2:28.36 | 241236 | 252371
16 | 56:04.72 | 3:00.73 | 252372 | 265944
17 | 59:05.70 | 3:03.19 | 265945 | 279688
18 | 62:09.14 | 4:30.66 | 279689 | 300004
19 | 66:40.05 | 2:55.02 | 300005 | 313131
20 | 69:35.07 | 1:59.69 | 313132 | 322125


Track 1

Filename D:\NNMclub gvm55 rips\VA - 100 Hits- Acoustic CD4 (2014)(Flac+.cue)\CD1\01. Samba pa ti.wav

Pre-gap length 0:00:02.00

Peak level 92.2 %
Extraction speed 2.5 X
Track quality 99.9 %
Test CRC 0C5468D3
Copy CRC 0C5468D3
Accurately ripped (confidence 5) [61613C51] (AR v2)
Copy OK

Track 2

Filename D:\NNMclub gvm55 rips\VA - 100 Hits- Acoustic CD4 (2014)(Flac+.cue)\CD1\02. What Have They Done to My Song, Ma.wav

Pre-gap length 0:00:01.74

Peak level 92.2 %
Extraction speed 2.7 X
Track quality 99.9 %
Test CRC 847DCB7D
Copy CRC 847DCB7D
Accurately ripped (confidence 5) [2AB64D38] (AR v2)
Copy OK

Track 3

Filename D:\NNMclub gvm55 rips\VA - 100 Hits- Acoustic CD4 (2014)(Flac+.cue)\CD1\03. Easy Come Easy Go.wav

Pre-gap length 0:00:01.74

Peak level 92.2 %
Extraction speed 3.3 X
Track quality 100.0 %
Test CRC 853E0134
Copy CRC 853E0134
Accurately ripped (confidence 5) [D054D052] (AR v2)
Copy OK

Track 4

Filename D:\NNMclub gvm55 rips\VA - 100 Hits- Acoustic CD4 (2014)(Flac+.cue)\CD1\04. You’ve Made Me So Very Happy.wav

Pre-gap length 0:00:01.74

Peak level 92.2 %
Extraction speed 3.5 X
Track quality 100.0 %
Test CRC FAE96123
Copy CRC FAE96123
Accurately ripped (confidence 5) [686B6808] (AR v2)
Copy OK

Track 5

Filename D:\NNMclub gvm55 rips\VA - 100 Hits- Acoustic CD4 (2014)(Flac+.cue)\CD1\05. I Won’t Hold You Back.wav

Pre-gap length 0:00:01.74

Peak level 91.2 %
Extraction speed 3.9 X
Track quality 100.0 %
Test CRC 089A779E
Copy CRC 089A779E
Accurately ripped (confidence 5) [9A3E5C96] (AR v2)
Copy OK

Track 6

Filename D:\NNMclub gvm55 rips\VA - 100 Hits- Acoustic CD4 (2014)(Flac+.cue)\CD1\06. If You Think You Know How to Love Me.wav

Pre-gap length 0:00:01.74

Peak level 92.2 %
Extraction speed 3.9 X
Track quality 100.0 %
Test CRC BA47B1E3
Copy CRC BA47B1E3
Accurately ripped (confidence 5) [9E8FAB80] (AR v2)
Copy OK

Track 7

Filename D:\NNMclub gvm55 rips\VA - 100 Hits- Acoustic CD4 (2014)(Flac+.cue)\CD1\07. We Meet Again.wav

Pre-gap length 0:00:01.74

Peak level 92.2 %
Extraction speed 3.3 X
Track quality 99.9 %
Test CRC 4C24FBA8
Copy CRC 4C24FBA8
Accurately ripped (confidence 5) [579A8746] (AR v2)
Copy OK

Track 8

Filename D:\NNMclub gvm55 rips\VA - 100 Hits- Acoustic CD4 (2014)(Flac+.cue)\CD1\08. Old & Wise.wav

Pre-gap length 0:00:01.74

Peak level 92.2 %
Extraction speed 4.4 X
Track quality 100.0 %
Test CRC 0A4F4114
Copy CRC 0A4F4114
Accurately ripped (confidence 3) [B5F24022] (AR v2)
Copy OK

Track 9

Filename D:\NNMclub gvm55 rips\VA - 100 Hits- Acoustic CD4 (2014)(Flac+.cue)\CD1\09. When I Need You.wav

Pre-gap length 0:00:01.74

Peak level 92.2 %
Extraction speed 4.6 X
Track quality 100.0 %
Test CRC B4BBC8F2
Copy CRC B4BBC8F2
Accurately ripped (confidence 5) [62681EE3] (AR v2)
Copy OK

Track 10

Filename D:\NNMclub gvm55 rips\VA - 100 Hits- Acoustic CD4 (2014)(Flac+.cue)\CD1\10. I Don’t Believe in Miracles.wav

Pre-gap length 0:00:01.74

Peak level 85.0 %
Extraction speed 3.6 X
Track quality 99.9 %
Test CRC 082B5A7B
Copy CRC 082B5A7B
Accurately ripped (confidence 5) [DF38F5A8] (AR v2)
Copy OK

Track 11

Filename D:\NNMclub gvm55 rips\VA - 100 Hits- Acoustic CD4 (2014)(Flac+.cue)\CD1\11. This Land Is Your Land.wav

Pre-gap length 0:00:01.74

Peak level 92.2 %
Extraction speed 4.0 X
Track quality 99.9 %
Test CRC 85A9421E
Copy CRC 85A9421E
Accurately ripped (confidence 5) [542551B1] (AR v2)
Copy OK

Track 12

Filename D:\NNMclub gvm55 rips\VA - 100 Hits- Acoustic CD4 (2014)(Flac+.cue)\CD1\12. Up on the Roof.wav

Pre-gap length 0:00:02.00

Peak level 92.2 %
Extraction speed 4.8 X
Track quality 100.0 %
Test CRC C39B311F
Copy CRC C39B311F
Accurately ripped (confidence 5) [C704E288] (AR v2)
Copy OK

Track 13

Filename D:\NNMclub gvm55 rips\VA - 100 Hits- Acoustic CD4 (2014)(Flac+.cue)\CD1\13. Here Comes the Sun.wav

Pre-gap length 0:00:02.00

Peak level 92.2 %
Extraction speed 5.0 X
Track quality 100.0 %
Test CRC E6BFD8B4
Copy CRC E6BFD8B4
Accurately ripped (confidence 5) [DB4C5096] (AR v2)
Copy OK

Track 14

Filename D:\NNMclub gvm55 rips\VA - 100 Hits- Acoustic CD4 (2014)(Flac+.cue)\CD1\14. Coconut.wav

Pre-gap length 0:00:01.74

Peak level 92.2 %
Extraction speed 5.2 X
Track quality 100.0 %
Test CRC 6A9EF105
Copy CRC 6A9EF105
Accurately ripped (confidence 5) [D59B76EC] (AR v2)
Copy OK

Track 15

Filename D:\NNMclub gvm55 rips\VA - 100 Hits- Acoustic CD4 (2014)(Flac+.cue)\CD1\15. Green River.wav

Pre-gap length 0:00:01.74

Peak level 92.2 %
Extraction speed 4.9 X
Track quality 100.0 %
Test CRC C4ADE120
Copy CRC C4ADE120
Accurately ripped (confidence 5) [D04305A1] (AR v2)
Copy OK

Track 16

Filename D:\NNMclub gvm55 rips\VA - 100 Hits- Acoustic CD4 (2014)(Flac+.cue)\CD1\16. Annie’s Song.wav

Pre-gap length 0:00:01.74

Peak level 92.2 %
Extraction speed 5.2 X
Track quality 100.0 %
Test CRC C6E4739E
Copy CRC C6E4739E
Accurately ripped (confidence 5) [BC3465C1] (AR v2)
Copy OK

Track 17

Filename D:\NNMclub gvm55 rips\VA - 100 Hits- Acoustic CD4 (2014)(Flac+.cue)\CD1\17. It Ain’t Me Babe.wav

Pre-gap length 0:00:01.74

Peak level 92.2 %
Extraction speed 4.3 X
Track quality 99.9 %
Test CRC DECC21DB
Copy CRC DECC21DB
Accurately ripped (confidence 5) [7179D56A] (AR v2)
Copy OK

Track 18

Filename D:\NNMclub gvm55 rips\VA - 100 Hits- Acoustic CD4 (2014)(Flac+.cue)\CD1\18. Sunday Mornin’ Comin’ Down.wav

Pre-gap length 0:00:01.74

Peak level 87.0 %
Extraction speed 4.9 X
Track quality 99.9 %
Test CRC 63F49834
Copy CRC 63F49834
Accurately ripped (confidence 5) [B52B740D] (AR v2)
Copy OK

Track 19

Filename D:\NNMclub gvm55 rips\VA - 100 Hits- Acoustic CD4 (2014)(Flac+.cue)\CD1\19. I Will Always Love You.wav

Pre-gap length 0:00:01.74

Peak level 92.2 %
Extraction speed 5.4 X
Track quality 100.0 %
Test CRC F7D93BE4
Copy CRC F7D93BE4
Accurately ripped (confidence 5) [A1EDD074] (AR v2)
Copy OK

Track 20

Filename D:\NNMclub gvm55 rips\VA - 100 Hits- Acoustic CD4 (2014)(Flac+.cue)\CD1\20. Unsquare Dance.wav

Pre-gap length 0:00:01.74

Peak level 92.2 %
Extraction speed 5.0 X
Track quality 100.0 %
Test CRC FA9D23BB
Copy CRC FA9D23BB
Accurately ripped (confidence 5) [68BCDD5F] (AR v2)
Copy OK


All tracks accurately ripped

No errors occurred

End of status report

–– CUETools DB Plugin V2.1.6

[CTDB TOCID: nZ1PRvPbGn9pI_7.saHXqxwOG9c-] found
Submit result: nZ1PRvPbGn9pI_7.saHXqxwOG9c- has been confirmed
Track | CTDB Status
1 | (17/17) Accurately ripped
2 | (17/17) Accurately ripped
3 | (17/17) Accurately ripped
4 | (17/17) Accurately ripped
5 | (17/17) Accurately ripped
6 | (17/17) Accurately ripped
7 | (17/17) Accurately ripped
8 | (16/17) Accurately ripped
9 | (17/17) Accurately ripped
10 | (17/17) Accurately ripped
11 | (17/17) Accurately ripped
12 | (17/17) Accurately ripped
13 | (17/17) Accurately ripped
14 | (17/17) Accurately ripped
15 | (17/17) Accurately ripped
16 | (17/17) Accurately ripped
17 | (17/17) Accurately ripped
18 | (17/17) Accurately ripped
19 | (17/17) Accurately ripped
20 | (17/17) Accurately ripped


==== Log checksum 3BB26C686E929C1DD0E79BAB8E46B47FEA4F2DEE989C1F6C76C2FB2990307455 ====


CD5

01. Tom Baxter - This Boy (3:48)
02. The Byrds - Mr Tambourine Man (2:21)
03. Cowboy Junkies - Sun Comes Up, It’s Tuesday Morning (3:58)
04. Nina Simone - Don’t Let Me Be Misunderstood (4:53)
05. Delaney & Bonnie & Friends - Groupie (Superstar) (2:50)
06. Dan Fogelberg - Same Old Lang Syne (5:21)
07. J.D. Souther - You’re Only Lonely (3:49)
08. Bruce Hornsby & The Range - The Valley Road (4:45)
09. The Peddlers - Birth (4:06)
10. Grand Drive - Wheels (4:33)
11. Dolly Parton - Jolene (2:41)
12. John Denver - Take Me Home, Country Roads (3:11)
13. Johnny Cash - A Boy Named Sue (3:38)
14. Kris Kristofferson - For the Good Times (3:24)
15. Michael Nesmith & The First National Band - Silver Moon (3:11)
16. Rosanne Cash - Tennessee Flat Top Box (3:10)
17. The Charlie Daniels Band - The Devil Went Down to Georgia (3:36)
18. Waylon Jennings - Anita, You’re Dreaming (2:27)
19. Willie Nelson - Always on My Mind (3:33)
20. Jim Croce - Time in a Bottle (2:25)
Exact Audio Copy V1.6 from 23. October 2020

EAC extraction logfile from 29. July 2021, 22:58

Various Artists / 100 Hits: Acoustic CD5

Used drive : ASUS SDRW-08U7M-U Adapter: 0 ID: 0

Read mode : Secure
Utilize accurate stream : Yes
Defeat audio cache : Yes
Make use of C2 pointers : No

Read offset correction : 6
Overread into Lead-In and Lead-Out : No
Fill up missing offset samples with silence : Yes
Delete leading and trailing silent blocks : No
Null samples used in CRC calculations : Yes
Used interface : Installed external ASPI interface
Gap handling : Appended to previous track

Used output format : User Defined Encoder
Selected bitrate : 768 kBit/s
Quality : High
Add ID3 tag : No
Command line compressor : C:\Program Files (x86)\Exact Audio Copy\FLAC\FLAC.EXE
Additional command line options : -8 -V -T "TITLE=%title%" -T "ARTIST=%artist%" -T "ALBUMARTIST=%albumartist%" -T "ALBUM=%albumtitle%" -T "DATE=%year%" -T "TRACKNUMBER=%tracknr%" -T "TRACKTOTAL=%numtracks%" -T "GENRE=%genre%" -T "COMMENT=%comment%" -T "PERFORMER=%albuminterpret%" -T "COMPOSER=%composer%" %source% -o %dest%


TOC of the extracted CD

Track | Start | Length | Start sector | End sector
––––––––––––––––––––––––––––-
1 | 0:00.00 | 3:48.26 | 0 | 17125
2 | 3:48.26 | 2:21.21 | 17126 | 27721
3 | 6:09.47 | 3:58.01 | 27722 | 45572
4 | 10:07.48 | 4:52.71 | 45573 | 67543
5 | 15:00.44 | 2:49.64 | 67544 | 80282
6 | 17:50.33 | 5:20.45 | 80283 | 104327
7 | 23:11.03 | 3:48.63 | 104328 | 121490
8 | 26:59.66 | 4:44.45 | 121491 | 142835
9 | 31:44.36 | 4:05.50 | 142836 | 161260
10 | 35:50.11 | 4:33.28 | 161261 | 181763
11 | 40:23.39 | 2:41.27 | 181764 | 193865
12 | 43:04.66 | 3:10.65 | 193866 | 208180
13 | 46:15.56 | 3:38.29 | 208181 | 224559
14 | 49:54.10 | 3:23.55 | 224560 | 239839
15 | 53:17.65 | 3:10.61 | 239840 | 254150
16 | 56:28.51 | 3:10.33 | 254151 | 268433
17 | 59:39.09 | 3:36.14 | 268434 | 284647
18 | 63:15.23 | 2:27.05 | 284648 | 295677
19 | 65:42.28 | 3:33.03 | 295678 | 311655
20 | 69:15.31 | 2:25.19 | 311656 | 322549


Track 1

Filename D:\NNMclub gvm55 rips\VA - 100 Hits- Acoustic CD5 (2014)(Flac+.cue)\CD1\01. This Boy.wav

Pre-gap length 0:00:02.00

Peak level 88.3 %
Extraction speed 2.8 X
Track quality 100.0 %
Test CRC 791202D1
Copy CRC 791202D1
Accurately ripped (confidence 5) [0F99F5A6] (AR v2)
Copy OK

Track 2

Filename D:\NNMclub gvm55 rips\VA - 100 Hits- Acoustic CD5 (2014)(Flac+.cue)\CD1\02. Mr Tambourine Man.wav

Pre-gap length 0:00:01.74

Peak level 92.2 %
Extraction speed 2.7 X
Track quality 100.0 %
Test CRC 1094E5CF
Copy CRC 1094E5CF
Accurately ripped (confidence 5) [42B2E228] (AR v2)
Copy OK

Track 3

Filename D:\NNMclub gvm55 rips\VA - 100 Hits- Acoustic CD5 (2014)(Flac+.cue)\CD1\03. Sun Comes Up, It’s Tuesday Morning.wav

Pre-gap length 0:00:01.74

Peak level 92.2 %
Extraction speed 2.7 X
Track quality 99.9 %
Test CRC A17EA881
Copy CRC A17EA881
Accurately ripped (confidence 5) [8D09BDDA] (AR v2)
Copy OK

Track 4

Filename D:\NNMclub gvm55 rips\VA - 100 Hits- Acoustic CD5 (2014)(Flac+.cue)\CD1\04. Don’t Let Me Be Misunderstood.wav

Pre-gap length 0:00:01.74

Peak level 66.7 %
Extraction speed 3.5 X
Track quality 100.0 %
Test CRC BFE4FC0A
Copy CRC BFE4FC0A
Accurately ripped (confidence 5) [7A27E47C] (AR v2)
Copy OK

Track 5

Filename D:\NNMclub gvm55 rips\VA - 100 Hits- Acoustic CD5 (2014)(Flac+.cue)\CD1\05. Groupie (Superstar).wav

Pre-gap length 0:00:01.74

Peak level 92.2 %
Extraction speed 3.5 X
Track quality 100.0 %
Test CRC D3308C1D
Copy CRC D3308C1D
Accurately ripped (confidence 5) [CD006565] (AR v2)
Copy OK

Track 6

Filename D:\NNMclub gvm55 rips\VA - 100 Hits- Acoustic CD5 (2014)(Flac+.cue)\CD1\06. Same Old Lang Syne.wav

Pre-gap length 0:00:01.74

Peak level 92.2 %
Extraction speed 4.0 X
Track quality 100.0 %
Test CRC B06F7D84
Copy CRC B06F7D84
Accurately ripped (confidence 5) [7D2CEC9F] (AR v2)
Copy OK

Track 7

Filename D:\NNMclub gvm55 rips\VA - 100 Hits- Acoustic CD5 (2014)(Flac+.cue)\CD1\07. You’re Only Lonely.wav

Pre-gap length 0:00:01.74

Peak level 76.8 %
Extraction speed 4.1 X
Track quality 100.0 %
Test CRC 8C9F43CA
Copy CRC 8C9F43CA
Accurately ripped (confidence 5) [31ED06A0] (AR v2)
Copy OK

Track 8

Filename D:\NNMclub gvm55 rips\VA - 100 Hits- Acoustic CD5 (2014)(Flac+.cue)\CD1\08. The Valley Road.wav

Pre-gap length 0:00:01.74

Peak level 92.2 %
Extraction speed 4.4 X
Track quality 100.0 %
Test CRC 4372E821
Copy CRC 4372E821
Accurately ripped (confidence 5) [C32750D1] (AR v2)
Copy OK

Track 9

Filename D:\NNMclub gvm55 rips\VA - 100 Hits- Acoustic CD5 (2014)(Flac+.cue)\CD1\09. Birth.wav

Pre-gap length 0:00:01.74

Peak level 92.2 %
Extraction speed 3.8 X
Track quality 99.9 %
Test CRC 4C855CD2
Copy CRC 4C855CD2
Accurately ripped (confidence 5) [AC53404D] (AR v2)
Copy OK

Track 10

Filename D:\NNMclub gvm55 rips\VA - 100 Hits- Acoustic CD5 (2014)(Flac+.cue)\CD1\10. Wheels.wav

Pre-gap length 0:00:01.74

Peak level 89.3 %
Extraction speed 4.8 X
Track quality 100.0 %
Test CRC BB98802C
Copy CRC BB98802C
Accurately ripped (confidence 5) [37AB3A2F] (AR v2)
Copy OK

Track 11

Filename D:\NNMclub gvm55 rips\VA - 100 Hits- Acoustic CD5 (2014)(Flac+.cue)\CD1\11. Jolene.wav

Pre-gap length 0:00:01.74

Peak level 86.5 %
Extraction speed 3.6 X
Track quality 99.9 %
Test CRC 9D01DA38
Copy CRC 9D01DA38
Accurately ripped (confidence 5) [84B179E2] (AR v2)
Copy OK

Track 12

Filename D:\NNMclub gvm55 rips\VA - 100 Hits- Acoustic CD5 (2014)(Flac+.cue)\CD1\12. Take Me Home, Country Roads.wav

Pre-gap length 0:00:01.73

Peak level 92.2 %
Extraction speed 3.9 X
Track quality 99.9 %
Test CRC 21DCAACE
Copy CRC 21DCAACE
Accurately ripped (confidence 5) [571B4294] (AR v2)
Copy OK

Track 13

Filename D:\NNMclub gvm55 rips\VA - 100 Hits- Acoustic CD5 (2014)(Flac+.cue)\CD1\13. A Boy Named Sue.wav

Pre-gap length 0:00:01.74

Peak level 78.4 %
Extraction speed 5.0 X
Track quality 100.0 %
Test CRC D9038E54
Copy CRC D9038E54
Accurately ripped (confidence 5) [564D07EF] (AR v2)
Copy OK

Track 14

Filename D:\NNMclub gvm55 rips\VA - 100 Hits- Acoustic CD5 (2014)(Flac+.cue)\CD1\14. For the Good Times.wav

Pre-gap length 0:00:01.74

Peak level 92.2 %
Extraction speed 5.1 X
Track quality 100.0 %
Test CRC 03008578
Copy CRC 03008578
Accurately ripped (confidence 5) [AA0D7681] (AR v2)
Copy OK

Track 15

Filename D:\NNMclub gvm55 rips\VA - 100 Hits- Acoustic CD5 (2014)(Flac+.cue)\CD1\15. Silver Moon.wav

Pre-gap length 0:00:01.74

Peak level 92.2 %
Extraction speed 5.1 X
Track quality 100.0 %
Test CRC 549CA0A5
Copy CRC 549CA0A5
Accurately ripped (confidence 5) [6B2B238C] (AR v2)
Copy OK

Track 16

Filename D:\NNMclub gvm55 rips\VA - 100 Hits- Acoustic CD5 (2014)(Flac+.cue)\CD1\16. Tennessee Flat Top Box.wav

Pre-gap length 0:00:01.74

Peak level 80.6 %
Extraction speed 5.2 X
Track quality 100.0 %
Test CRC AE74DE1B
Copy CRC AE74DE1B
Accurately ripped (confidence 5) [A015BF6E] (AR v2)
Copy OK

Track 17

Filename D:\NNMclub gvm55 rips\VA - 100 Hits- Acoustic CD5 (2014)(Flac+.cue)\CD1\17. The Devil Went Down to Georgia.wav

Pre-gap length 0:00:01.73

Peak level 92.2 %
Extraction speed 5.4 X
Track quality 100.0 %
Test CRC 0EFBB4A8
Copy CRC 0EFBB4A8
Accurately ripped (confidence 5) [4507E828] (AR v2)
Copy OK

Track 18

Filename D:\NNMclub gvm55 rips\VA - 100 Hits- Acoustic CD5 (2014)(Flac+.cue)\CD1\18. Anita, You’re Dreaming.wav

Pre-gap length 0:00:01.73

Peak level 92.2 %
Extraction speed 4.0 X
Track quality 99.9 %
Test CRC 470F8648
Copy CRC 470F8648
Accurately ripped (confidence 5) [E37FA8C7] (AR v2)
Copy OK

Track 19

Filename D:\NNMclub gvm55 rips\VA - 100 Hits- Acoustic CD5 (2014)(Flac+.cue)\CD1\19. Always on My Mind.wav

Pre-gap length 0:00:01.74

Peak level 83.6 %
Extraction speed 5.6 X
Track quality 100.0 %
Test CRC D9108EE3
Copy CRC D9108EE3
Accurately ripped (confidence 5) [303AECDC] (AR v2)
Copy OK

Track 20

Filename D:\NNMclub gvm55 rips\VA - 100 Hits- Acoustic CD5 (2014)(Flac+.cue)\CD1\20. Time in a Bottle.wav

Pre-gap length 0:00:01.74

Peak level 92.2 %
Extraction speed 5.3 X
Track quality 100.0 %
Test CRC 792DDE59
Copy CRC 792DDE59
Accurately ripped (confidence 5) [73FA01D5] (AR v2)
Copy OK


All tracks accurately ripped

No errors occurred

End of status report

–– CUETools DB Plugin V2.1.6

[CTDB TOCID: HE6X8vo9DQ_K30f9z3nGkgwCQfc-] found
Submit result: HE6X8vo9DQ_K30f9z3nGkgwCQfc- has been confirmed
Track | CTDB Status
1 | (15/15) Accurately ripped
2 | (15/15) Accurately ripped
3 | (15/15) Accurately ripped
4 | (15/15) Accurately ripped
5 | (15/15) Accurately ripped
6 | (15/15) Accurately ripped
7 | (15/15) Accurately ripped
8 | (15/15) Accurately ripped
9 | (15/15) Accurately ripped
10 | (15/15) Accurately ripped
11 | (15/15) Accurately ripped
12 | (15/15) Accurately ripped
13 | (15/15) Accurately ripped
14 | (15/15) Accurately ripped
15 | (15/15) Accurately ripped
16 | (15/15) Accurately ripped
17 | (15/15) Accurately ripped
18 | (15/15) Accurately ripped
19 | (15/15) Accurately ripped
20 | (15/15) Accurately ripped


==== Log checksum C9205C09F14F027F6AEA295CA70FD4D82EE545BB016A95A9E25F9E1CBA25DD82 ====