Vivica Genaux, Akademie fur Alte Musik Berlin, Rene Jacobs - Arias for Farinelli (2003) MCH PS3 ISO + Hi-Res FLAC

Posted By: HDAtall
Vivica Genaux, Akademie fur Alte Musik Berlin, Rene Jacobs - Arias for Farinelli (2003) MCH PS3 ISO + Hi-Res FLAC

Vivica Genaux, Akademie Für Alte Musik Berlin, René Jacobs - Arias for Farinelli (2003)
PS3 Rip | SACD ISO | DST64 2.0 & 5.1 > 1-bit/2.8224 MHz | 77:33 minutes | Scans & Digital booklet | 3,78 GB
or FLAC 2.0 Stereo (converted with foobar2000 to tracks) 24bit/88,2 kHz | Scans & Digital booklet | 1,44 GB
Features Stereo & Multichannel Surround Sound / Harmonia Mundi # HMC 801778

Recording an album of arias written expressly for Farinelli, one of the most legendary castratos of the eighteenth century, is brave; his name invokes a world of superhuman vocal feats, remarkable pathos, and a uniquely strong and brilliant tone that, for obvious anatomical reasons, will not be replicated by modern singers. But that clearly does not scare Vivica Genaux who, along with René Jacobs and the Akademie für Alte Musik Berlin, dives into Farinelli's repertory as if it were her very own. She reveals a voice capable of dizzying speed and agility, and a refreshing ability to find in the highly ornamented, expression-through-excess style that typified opera seria of the time a sincerity and musical integrity that makes a case for its wider exploration. Jacobs and the Akademie are equally impressive, playing with a rhythmic vitality and crisp ensemble that elevates their role to an equal plane with that of the voice. Inclusion of Baldassare Galuppi's Concerto à quattro in D minor – a rare orchestral selection on a vocal recital album – is especially interesting; although it lacks the visceral appeal of the sung selections, it showcases the ensemble to great effect. Genaux is terrific in all respects, but she really shines when the fireworks start. There are jaw-dropping passages in these arias that are impossibly intricate, often combining furious coloratura and ornament upon ornament with wide leaps and extremes of range, both high and low. Hearing her negotiate these difficulties with such clarity and confidence is awe-inspiring and fun. Especially noteworthy are "Qual guerriero in campo armato" from Idaspe, by Riccardo Broschi (Farinelli's brother) and Geminiano Giacomelli's "Quell'usignolo," from the opera Merope. Both are showpieces that very few people could sing at all, let alone so winningly.

Tracklist:

01. Nicola Porpora: Orfeo - Dall'amor Più Sventurato
02. Riccardo Broschi: Idaspe - Ombra Fedele Anch'io
03. Riccardo Broschi: Idaspe - Qual Guerriero In Campo Armato
04. Geminiano Giacomelli: Adriano in Siria - Mancare, Dio, mi sento
05. Baldassare Galuppi: Concerto a 4 en do mineur / C minor / c-moll - Grave
06. Baldassare Galuppi: Concerto a 4 en do mineur / C minor / c-moll - Allegro
07. Baldassare Galuppi: Concerto a 4 en do mineur / C minor / c-moll - Andante
08. Nicola Porpora: Polifemo - Oh volesser gli Dei… Dolci freschi aurette
09. Nicola Porpora: Polifemo - Or la nube procellosa
10. Johann Adolf Hasse: Artaserse - Per questo dolce amplesso
11. Geminiano Giacomelli: Merope - Quell’usignolo

Recorded in January 2002 at Teldex-Studio, Berlin.

Vivica Genaux - Mezzo-soprano Vocals
Akademie Für Alte Musik Berlin - Conducted by René Jacobs.

foobar2000 1.6.1 / Dynamic Range Meter 1.1.1

––––––––––––––––––––––––––––––––––––––––
Analyzed: Vivica Genaux, mezzo-soprano / Akademie fьr Alte Musik Berlin / Dir. Renй Jacobs / Arias for Farinelli dit Carlo Broschi (1705-1782)
––––––––––––––––––––––––––––––––––––––––

DR Peak RMS Duration Track
––––––––––––––––––––––––––––––––––––––––
DR15 -5.99 dB -28.81 dB 4:20 01-Dall'amor piщ sventurato
DR17 -8.12 dB -33.85 dB 10:07 02-Ombra fedele anch'io
DR15 -5.98 dB -28.88 dB 8:09 03-Qual guerriero in campo armato
DR18 -6.63 dB -33.22 dB 11:19 04-Mancare Dio mi sento
DR12 -14.84 dB -36.47 dB 4:15 05-Grave / Concerto a 4 en do mineur / c-moll / C minor
DR14 -13.88 dB -33.04 dB 3:42 06-Allegro / Concerto a 4 en do mineur / c-moll / C minor
DR13 -17.27 dB -37.51 dB 2:06 07-Andante / Concerto a 4 en do mineur / c-moll / C minor
DR17 -9.31 dB -33.67 dB 8:28 08-Oh volesser gli Dei… Dolci freschi aurette
DR16 -6.68 dB -29.06 dB 4:51 09-Or la nube procellosa
DR17 -6.53 dB -32.40 dB 6:10 10-Per questo dolce amplesso
DR18 -6.27 dB -32.69 dB 14:07 11-Quell'usignolo
––––––––––––––––––––––––––––––––––––––––

Number of tracks: 11
Official DR value: DR16

Samplerate: 2822400 Hz / PCM Samplerate: 88200 Hz
Channels: 5
Bits per sample: 1
Bitrate: 14112 kbps
Codec: DST64
================================================================================

––––––––––––––––––––––––––––––––––––––––
Analyzed: Vivica Genaux, mezzo-soprano / Akademie fьr Alte Musik Berlin / Dir. Renй Jacobs / Arias for Farinelli dit Carlo Broschi (1705-1782)
––––––––––––––––––––––––––––––––––––––––

DR Peak RMS Duration Track
––––––––––––––––––––––––––––––––––––––––
DR14 -6.10 dB -24.04 dB 4:19 01-Dall'amor piщ sventurato
DR17 -6.12 dB -28.66 dB 10:07 02-Ombra fedele anch'io
DR14 -6.12 dB -24.16 dB 8:09 03-Qual guerriero in campo armato
DR18 -6.14 dB -27.95 dB 11:19 04-Mancare Dio mi sento
DR12 -13.25 dB -30.66 dB 4:16 05-Grave / Concerto a 4 en do mineur / c-moll / C minor
DR14 -8.54 dB -27.50 dB 3:42 06-Allegro / Concerto a 4 en do mineur / c-moll / C minor
DR13 -13.94 dB -32.16 dB 2:06 07-Andante / Concerto a 4 en do mineur / c-moll / C minor
DR18 -6.18 dB -28.39 dB 8:28 08-Oh volesser gli Dei… Dolci freschi aurette
DR14 -6.12 dB -23.97 dB 4:50 09-Or la nube procellosa
DR17 -6.16 dB -27.64 dB 6:10 10-Per questo dolce amplesso
DR17 -6.08 dB -27.66 dB 14:07 11-Quell'usignolo
––––––––––––––––––––––––––––––––––––––––

Number of tracks: 11
Official DR value: DR15

Samplerate: 2822400 Hz / PCM Samplerate: 88200 Hz
Channels: 2
Bits per sample: 1
Bitrate: 5645 kbps
Codec: DST64


Thanks to PS³SACD!
Uncompressed SACD ISO size > 3,59 GB
>