Various Artists - Crooners and Divas (2014) [Official Digital Download]

Posted By: HDV
Various Artists - Crooners and Divas (2014) [Official Digital Download]

Various Artists - Crooners & Divas (2014)
FLAC (tracks) 24-bit/44,1 kHz | Time - 154:42 minutes | 1,5 GB
Studio Master, Official Digital Download | Artwork: Front cover

This compilation features the songs performed by Frank Sinatra, Dean Martin, Nat King Cole, Tony Bennett, Nina Simone, Dinah Washington, Ella Fitzgerald, and many more.

Tracklist:

01 - Frank Sinatra - The Lady Is a Tramp
02 - Nat King Cole - Unforgettable
03 - Ray Charles - Georgia on My Mind
04 - Frank Sinatra - Stars Fell on Alabama
05 - Nat King Cole - If I Give My Heart to You
06 - Nat King Cole - A Blossom Fell
07 - Tony Bennett - Chicago
08 - Frank Sinatra - Lonely Town
09 - Nat King Cole - Smile
10 - Tony Bennett - I Left My Heart in San Francisco
11 - Brook Benton - Rainy Night in Georgia
12 - Nat King Cole - Mona Lisa
13 - Tony Bennett - Love Is Here to Stay
14 - Nat King Cole - Answer Me, My Love
15 - Frank Sinatra - Autumn Leaves
16 - Dean Martin - The Test of Time
17 - Tony Bennett - Stranger in Paradise
18 - Nat King Cole - A Little Street Where Old Friends Meet
19 - Nat King Cole - Forgive My Heart
20 - The Platters - Only You
21 - Frank Sinatra - Where Is the One
22 - Dean Martin - Buona Sera
23 - Perry Como - More Than You Know
24 - Frank Sinatra - Night and Day
25 - Ray Charles - Unchain My Heart
26 - Dinah Washington - I've Got You Under My Skin
27 - Dinah Washington - Never Let Me Go
28 - Helen Merrill - Yesterdays
29 - Aretha Franklin - I Say a Little Frayer
30 - Nina Simone - The Other Woman
31 - Ella Fitzgerald - A Fine Romance
32 - Ella Fitzgerald - Cotton Tail
33 - Nina Simone - Cotton Eyed Joe
34 - Patsy Cline - Crazy
35 - Ella Fitzgerald - Mr. Paganini
36 - Ella Fitzgerald - Miss Otis Regrets
37 - Ella Fitzgerald - Mood Indigo
38 - Ella Fitzgerald - On the Sunny Side of the Street
39 - Ella Fitzgerald - Misty
40 - Ella Fitzgerald - Solitude
41 - Ella Fitzgerald - Stormy Weather
42 - Ella Fitzgerald - Autumn in New York
43 - Julie Andrews - Cheek to Cheek
44 - Mary Martin - My Favourite Things
45 - Sarah Vaughan - Whatever Lola Wants
46 - Carmen McRae - Give Me a Simple Life
47 - Billie Holiday - How Deep Is the Ocean
48 - Doris Day - Stardust

Analyzed: Aretha Franklin / Crooners & Divas (1)
Billie Holiday / Crooners & Divas (2)
Brook Benton / Crooners & Divas (3)
Carmen McRae / Crooners & Divas (4)
Dean Martin / Crooners & Divas (5-6)
Dinah Washington / Crooners & Divas (7-8)
Doris Day / Crooners & Divas (9)
Ella Fitzgerald / Crooners & Divas (10-19)
Frank Sinatra / Crooners & Divas (20-25)
Helen Merrill / Crooners & Divas (26)
Julie Andrews / Crooners & Divas (27)
Mary Martin / Crooners & Divas (28)
Nat King Cole / Crooners & Divas (29-36)
Nina Simone / Crooners & Divas (37-38)
Patsy Cline / Crooners & Divas (39)
Perry Como / Crooners & Divas (40)
Ray Charles / Crooners & Divas (41-42)
Sarah Vaughan / Crooners & Divas (43)
The Platters / Crooners & Divas (44)
Tony Bennett / Crooners & Divas (45-48)
––––––––––––––––––––––––––––––––––––––––

DR Peak RMS Duration Track
––––––––––––––––––––––––––––––––––––––––
DR11 -1.70 dB -14.28 dB 3:35 04-I Say a Little Frayer
DR12 -0.66 dB -17.00 dB 2:59 22-How Deep Is the Ocean
DR12 -0.71 dB -15.87 dB 3:50 11-Rainy Night in Georgia
DR13 -0.38 dB -17.03 dB 2:21 21-Give Me a Simple Life
DR9 -0.20 dB -11.65 dB 2:14 16-The Test of Time
DR10 -0.38 dB -12.71 dB 2:22 22-Buona Sera
DR13 -1.52 dB -16.87 dB 5:33 01-I've Got You Under My Skin
DR11 -2.05 dB -15.61 dB 2:44 02-Never Let Me Go
DR11 -0.20 dB -15.63 dB 2:49 23-Stardust
DR11 -0.41 dB -14.03 dB 3:52 06-A Fine Romance
DR12 -0.23 dB -13.95 dB 3:26 07-Cotton Tail
DR12 -0.20 dB -16.17 dB 4:04 10-Mr. Paganini
DR12 -1.19 dB -18.72 dB 2:59 11-Miss Otis Regrets
DR11 -0.54 dB -15.07 dB 3:26 12-Mood Indigo
DR12 -0.22 dB -15.76 dB 3:05 13-On the Sunny Side of the Street
DR13 -0.74 dB -17.57 dB 2:45 14-Misty
DR11 -0.44 dB -15.74 dB 2:08 15-Solitude
DR12 -0.22 dB -15.50 dB 5:14 16-Stormy Weather
DR13 -0.55 dB -17.00 dB 6:00 17-Autumn in New York
DR11 -0.19 dB -13.72 dB 3:16 01-The Lady Is a Tramp
DR10 -0.20 dB -12.92 dB 2:40 04-Stars Fell on Alabama
DR10 -0.20 dB -13.89 dB 4:13 08-Lonely Town
DR9 -0.20 dB -12.87 dB 2:52 15-Autumn Leaves
DR10 -0.20 dB -14.00 dB 3:14 21-Where Is the One
DR10 -0.19 dB -12.13 dB 4:01 24-Night and Day
DR13 -0.29 dB -17.43 dB 6:00 03-Yesterdays
DR10 -0.62 dB -13.84 dB 2:02 18-Cheek to Cheek
DR12 -0.46 dB -16.22 dB 2:48 19-My Favourite Things
DR10 -0.20 dB -13.00 dB 3:13 02-Unforgettable
DR9 -0.20 dB -12.61 dB 3:00 05-If I Give My Heart to You
DR10 -0.20 dB -12.21 dB 2:34 06-A Blossom Fell
DR12 -0.20 dB -14.38 dB 2:55 09-Smile
DR11 -0.20 dB -13.80 dB 3:17 12-Mona Lisa
DR8 -0.20 dB -11.37 dB 2:39 14-Answer Me, My Love
DR9 -0.20 dB -12.44 dB 3:20 18-A Little Street Where Old Friends Meet
DR9 -0.20 dB -11.79 dB 3:02 19-Forgive My Heart
DR10 -1.20 dB -14.10 dB 3:04 05-The Other Woman
DR9 -0.27 dB -13.56 dB 2:54 08-Cotton Eyed Joe
DR11 -0.20 dB -14.20 dB 2:44 09-Crazy
DR7 -0.20 dB -10.36 dB 3:16 23-More Than You Know
DR9 -1.39 dB -13.19 dB 3:36 03-Georgia on My Mind
DR8 -3.43 dB -12.65 dB 2:45 25-Unchain My Heart
DR10 -2.74 dB -15.25 dB 2:37 20-Whatever Lola Wants
DR10 -0.20 dB -11.84 dB 2:38 20-Only You
DR10 -0.20 dB -12.89 dB 2:06 07-Chicago
DR9 -0.20 dB -11.72 dB 2:53 10-I Left My Heart in San Francisco
DR11 -0.73 dB -13.27 dB 2:18 13-Love Is Here to Stay
DR10 -0.20 dB -14.41 dB 3:19 17-Stranger in Paradise
––––––––––––––––––––––––––––––––––––––––

Number of tracks: 48
Official DR value: DR11

Samplerate: 44100 Hz
Channels: 2
Bits per sample: 24
Bitrate: 1520 kbps
Codec: FLAC
================================================================================


Thanks to the Original customer!