Tina Turner - Private Dancer (1984/2015) [Official Digital Download 24-bit/96kHz]

Posted By: HDV
Tina Turner - Private Dancer (1984/2015) [Official Digital Download 24-bit/96kHz]

Tina Turner - Private Dancer (1984/2015) [Remastered]
FLAC (tracks) 24-bit/96 kHz | Time - 44:22 minutes | 993 MB
Studio Master, Official Digital Download | Artwork: Front cover

Tina Turner’s landmark “comeback” album, „Private Dancer“ is a must-have for music-lovers. The four-time Grammy-winning album yielded seven singles and catapulted Tina Turner straight back to the top. Originally released in June 1984, Private Dancer features hits including "What's Love Got to Do With It", "Better Be Good To Me", "Private Dancer", and "Let's Stay Together".

In 1984, a 45-year-old Tina Turner made one of the most amazing comebacks in the history of American popular music. A few years earlier, it was hard to imagine the veteran soul/rock belter reinventing herself and returning to the top of the pop charts, but she did exactly that with the outstanding Private Dancer. And Turner did so without sacrificing her musical integrity. To be sure, this pop/rock/R&B pearl is decidedly slicker than such raw, earthy, hard-edged Ike & Tina classics as "Proud Mary," "Sexy Ida," and "I Wanna Take You Higher." But she still has a tough, throaty, passionate delivery that serves her beautifully on everything from the melancholy, reggae-influenced "What's Love Got to Do With It" to the gutsy "Better Be Good to Me" to heartfelt remakes of the Beatles' "Help," Al Green's "Let's Stay Together," and David Bowie's "1984." A reflection on the emptiness of a stripper's life, the dusky title song is as poignant as it is depressing. Without question, this was Turner's finest hour as a solo artist.

Tracklist:

01 - I Might Have Been Queen
02 - What's Love Got To Do With It
03 - Show Some Respect
04 - I Can't Stand The Rain
05 - Private Dancer
06 - Let's Stay Together
07 - Better Be Good To Me
08 - Steel Claw
09 - Help!
10 - 1984

Tina Turner, vocals, background vocals
Jeff Beck, guitar
Terry Britten, guitar, vocals, background vocals
Hal Lindes, guitar
David T. Walker, guitar
Paul Warren, guitar
Gary Barnacle, saxophone
Mel Collins, saxophone
Joe Sample, synthesizer, piano
Martyn Ware, synthesizer, vocals, background vocals
Nick Plytas, piano, synthesizer
David Ervin, synthesizer
Billy Livsey, keyboards
Jimmy Philips, keyboards
Nick Glennie-Smith, keyboards
Alan Clark, percussion, keyboards
Wilton Felder, bass, saxophone
Rupert Hine, bass, percussion, keyboards, vocals, background vocals
John Illsley, bass
John Trivers, bass
Graham Broad, drums
Jack Bruno, drums
Terry Williams, drums
Frank Ricotti, percussion
Cy Curnin, vocals, background vocals
Glenn Gregory, vocals, background vocals
Tessa Niles, vocals, background vocals


Digitally remastered.

NOTE: After some customers complaints, some digital stores change the description
to 44kHz/24-bit recordings mastered to 96kHz/24-bit. - Sad but true.

Analyzed: Tina Turner / Private Dancer (Remastered)
––––––––––––––––––––––––––––––––––––––––

DR Peak RMS Duration Track
––––––––––––––––––––––––––––––––––––––––
DR8 -0.17 dB -9.77 dB 4:10 01-I Might Have Been Queen
DR11 -0.17 dB -12.71 dB 3:50 02-What's Love Got To Do With It
DR8 -0.17 dB -9.63 dB 3:19 03-Show Some Respect
DR8 -0.17 dB -10.36 dB 3:43 04-I Can't Stand The Rain
DR9 -0.17 dB -12.07 dB 7:15 05-Private Dancer
DR7 -0.17 dB -9.41 dB 5:18 06-Let's Stay Together
DR8 -0.17 dB -10.58 dB 5:13 07-Better Be Good To Me
DR7 -0.17 dB -8.27 dB 3:50 08-Steel Claw
DR10 -0.17 dB -12.63 dB 4:32 09-Help!
DR8 -0.17 dB -11.04 dB 3:11 10-1984
––––––––––––––––––––––––––––––––––––––––

Number of tracks: 10
Official DR value: DR8

Samplerate: 96000 Hz
Channels: 2
Bits per sample: 24
Bitrate: 3061 kbps
Codec: FLAC
================================================================================


Thanks to the Original customer!