Steve Miller Band - Children Of The Future (1968/2018) [Official Digital Download 24-bit/96kHz]

Posted By: HDV
Steve Miller Band - Children Of The Future (1968/2018) [Official Digital Download 24-bit/96kHz]

Steve Miller Band - Children Of The Future (1968/2018)
FLAC (tracks) 24-bit/96 kHz | Time - 38:18 minutes | 913 MB
Studio Master, Official Digital Download | Artwork: Front cover

"Children of the Future" is the Steve Miller Band's debut album released in 1968 and now is celebrating its 50th anniversary in 2018. This band is known to combine elements from the blues and psychedelic rock while this album, in particular, explores themes about the British blues revival in its musicianship.

A psychedelic blues rock-out, 1968's Children of the Future marked Steve Miller's earliest attempt at the ascent that brought him supersonic superstardom. Recorded at Olympic Studios in London with storied producer Glyn Johns at the helm, the set played out as pure West Coast rock inflected with decade-of-love psychedelia but intriguingly cloaked in the misty pathos of the U.K. blues ethic. Though bandmate Boz Scaggs contributed a few songs, the bulk of the material was written by Miller while working as a janitor at a music studio in Texas earlier in the year. The best of his efforts resonate in a side one free-for-all that launches with the keys and swirls of the title track and segues smoothly through "Pushed Me Through It" and "In My First Mind," bound for the epic, hazy, lazy, organ-inflected "The Beauty of Time Is That It's Snowing," which ebbs and flows in ways that are continually surprising. The second half of the LP is cast in a different light – a clutch of songs that groove together but don't have the same sleepy flow. Though it has since attained classic status – Miller himself was still performing it eight years later – Scaggs' "Baby's Callin' Me Home" is a sparse, lightly instrumentalized piece of good old '60s San Francisco pop. His "Steppin' Stone," on the other hand, is a raucous, heavy-handed blues freakout with a low-riding bass and guitar breaks that angle out in all directions. And whether the title capitalized at all on the Monkees' similarly titled song, released a year earlier, is anybody's guess. Children of the Future was a brilliant debut. And while it is certainly a product of its era, it's still a vibrant reminder of just how the blues co-opted the mainstream to magnificent success.

Tracklist:

01 - Children Of The Future
02 - Pushed Me To It
03 - You've Got The Power
04 - In My First Mind
05 - The Beauty Of Time Is That It's Snowing (Psychedelic B.B.)
06 - Baby's Callin' Me Home
07 - Steppin' Stone
08 - Roll With It
09 - Junior Saw It Happen
10 - Fanny Mae
11 - Key To The Highway

Produced & Engineered by Glyn Johns.
Recorded in early 1968 at Studio Olympic Studios, London, England.

Musicians:
Steve Miller - guitar, lead (1-5, 7, 8, 11) and backing vocals, harmonica
Boz Scaggs - guitar, backing and lead (6, 7) vocals
Lonnie Turner - bass guitar, backing vocals
Jim Peterman - Hammond organ, mellotron (1-5) backing vocals
Tim Davis - drums, backing and lead (9, 10) vocals

Analyzed: Steve Miller Band / Children Of The Future
––––––––––––––––––––––––––––––––––––––––

DR Peak RMS Duration Track
––––––––––––––––––––––––––––––––––––––––
DR6 0.00 dB -9.09 dB 3:02 01-Children Of The Future
DR7 0.00 dB -8.89 dB 0:39 02-Pushed Me To It
DR7 0.00 dB -7.91 dB 0:53 03-You've Got The Power
DR6 0.00 dB -8.13 dB 7:37 04-In My First Mind
DR8 0.00 dB -11.47 dB 5:11 05-The Beauty Of Time Is That It's Snowing (Psychedelic B.B.)
DR11 0.00 dB -14.34 dB 3:17 06-Baby's Callin' Me Home
DR9 0.00 dB -10.34 dB 3:10 07-Steppin' Stone
DR7 0.00 dB -7.98 dB 2:30 08-Roll With It
DR8 0.00 dB -9.54 dB 2:30 09-Junior Saw It Happen
DR9 0.00 dB -11.38 dB 3:10 10-Fanny Mae
DR11 -0.05 dB -13.85 dB 6:20 11-Key To The Highway
––––––––––––––––––––––––––––––––––––––––

Number of tracks: 11
Official DR value: DR8

Samplerate: 96000 Hz
Channels: 2
Bits per sample: 24
Bitrate: 2973 kbps
Codec: FLAC
================================================================================


Thanks to the Original customer!