Mike Nock - Between Or Beyond (1971/2015) [Official Digital Download 24/88]

Posted By: HDV
Mike Nock - Between Or Beyond (1971/2015) [Official Digital Download 24/88]

The Mike Nock Underground - Between Or Beyond (1971/2015)
FLAC (tracks) 24-bit/88,2 kHz | Time - 38:47 minutes | 770 MB
Studio Master, Official Digital Download | Artwork: Front cover

"Between or Beyond" from The Mike Nock Underground is a classic fusion of rock, funk and jazz that spins from soulful grooves all the way to the outer edge. A showcase for Nock's virtuosity on piano and especially electric piano, the album had been unavailable on CD for many years. Nock is joined by the rhythm section from his band The Fourth Way, Eddie Marshall on drums and a superb Ron McClure on electric bass.

Funk with feeling drives The Squire, with a nod to fellow fusion pioneers Weather Report. Hobgoblin is a swinging classic example of Nock’s acoustic side, while on the slightly darker Outfall, he trades between acoustic and electric piano. Denim Dance offers up a funky blues that would get anyone born in the Age of Aquarius up and dancing to Nock’s polytonal riffs. Lady Love, a medium tempo piece in ¾, exposes Nock’s more pensive, romantic side. A classic by one of the contemporary keyboard masters. That extraordinary group’s rhythm section has come along for the ride on Nock’s 1970 MPS release. The title piece constructs an up-tempo experiment in sounds, time, and space – quite a trip!

Tracklist:

01 - Between or Beyond
02 - The Squire
03 - Hobgoblin
04 - Outfall
05 - Denim Dance
06 - Lady Love
07 - Wax Planet
08 - Space Bugaloo

Produced by H.G. Brunner-Schwer & Joachim E. Berendt. Engineered by Rolf Donner.
Recorded June 29, 1970 at MPS Studio Villingen, Black Forest, Germany.
Digitally Remastered.

Musicians:
Mike Nock - piano, electric piano
Ron McClure - bass
Eddie Marshall - drums

Analyzed: The Mike Nock Underground / Between or Beyond
––––––––––––––––––––––––––––––––––––––––

DR Peak RMS Duration Track
––––––––––––––––––––––––––––––––––––––––
DR12 -0.90 dB -17.19 dB 5:13 01-Between or Beyond
DR11 -0.67 dB -15.61 dB 5:28 02-The Squire
DR11 -3.33 dB -16.60 dB 3:22 03-Hobgoblin
DR10 -1.87 dB -16.46 dB 4:52 04-Outfall
DR11 -1.51 dB -14.86 dB 6:48 05-Denim Dance
DR12 -1.43 dB -16.58 dB 4:59 06-Lady Love
DR10 -3.47 dB -14.98 dB 4:01 07-Wax Planet
DR11 -2.82 dB -16.48 dB 4:04 08-Space Bugaloo
––––––––––––––––––––––––––––––––––––––––

Number of tracks: 8
Official DR value: DR11

Samplerate: 88200 Hz
Channels: 2
Bits per sample: 24
Bitrate: 2625 kbps
Codec: FLAC
================================================================================


Thanks to the Original customer!