Michaela Hrabánková - Myslivecek: Oboe Quintets String Quartets (2020) [Official Digital Download 24/96]

Posted By: delpotro
Michaela Hrabánková - Myslivecek: Oboe Quintets String Quartets (2020) [Official Digital Download 24/96]

Michaela Hrabánková - Myslivecek: Oboe Quintets String Quartets (2020)
FLAC (tracks) 24-bit/96 kHz | Front Cover | Time - 64:31 minutes | 1,19 GB
Classical | Label: Supraphon, Official Digital Download

A prolific and gifted composer, Myslivecek wrote instrumental music, including 'Symphonies' and 'Chamber Pieces'. His first cycle of 'String Quartets' was published in Paris in 1768, the final one in Amsterdam, shortly after his death. These works were often performed in extended formations as symphonies. Myslivecek's 'Quartets' are characterised by wonderfully refined slow middle movements. Even more unique are his oboe quintets.

Tracklist:
1. Michaela Hrabankova – Quintet No. 1 in B-Flat Major: I. Allegro (03:32)
2. Michaela Hrabankova – Quintet No. 1 in B-Flat Major: II. Larghetto (03:49)
3. Michaela Hrabankova – Quintet No. 1 in B-Flat Major: III. Tempo di Minuetto (04:51)
4. Doležal Quartet – String Quartet in F Major, Op. 3: I. Allegro (04:41)
5. Doležal Quartet – String Quartet in F Major, Op. 3: II. Andante (06:51)
6. Doležal Quartet – String Quartet in F Major, Op. 3: III. Presto assai (02:45)
7. Doležal Quartet – String Quartet in A Major, Op. 3: I. Allegro (02:01)
8. Doležal Quartet – String Quartet in A Major, Op. 3: II. Larghetto (03:43)
9. Doležal Quartet – String Quartet in A Major, Op. 3: III. Presto (03:08)
10. Michaela Hrabankova – Quintet No. 2 in D Major: I. Vivace (03:55)
11. Michaela Hrabankova – Quintet No. 2 in D Major: II. Largo (04:44)
12. Michaela Hrabankova – Quintet No. 2 in D Major: III. Rondo. Allegretto con espressione (03:19)
13. Michaela Hrabankova – String Quartet in G Major, posth.: I. Allegro con spirito (03:38)
14. Michaela Hrabankova – String Quartet in G Major, posth.: II. Minuetto (03:00)
15. Michaela Hrabankova – String Quartet in G Major, posth.: III. Presto assai (01:58)
16. Michaela Hrabankova – Quintet No. 3 in F Major: I. Allegro (03:12)
17. Michaela Hrabankova – Quintet No. 3 in F Major: II. Larghetto (03:10)
18. Michaela Hrabankova – Quintet No. 3 in F Major: III. Presto (02:03)

foobar2000 1.4.1 / Dynamic Range Meter 1.1.1
log date: 2020-10-18 20:21:15

––––––––––––––––––––––––––––––––––––––––
Analyzed: Dolezal Quartet / Mysliveček - Oboe Quintets, String Quartets (1-9)
Michaela Hrabankova, Dolezal Quartet / Mysliveček - Oboe Quintets, String Quartets (10-18)
––––––––––––––––––––––––––––––––––––––––

DR Peak RMS Duration Track
––––––––––––––––––––––––––––––––––––––––
DR14 -0.63 dB -18.33 dB 4:42 04-String Quartet in F Major, Op. 3: I. Allegro
DR13 -4.83 dB -23.49 dB 6:52 05-String Quartet in F Major, Op. 3: II. Andante
DR12 -1.76 dB -18.53 dB 2:45 06-String Quartet in F Major, Op. 3: III. Presto assai
DR14 -3.30 dB -20.35 dB 2:02 07-String Quartet in A Major, Op. 3: I. Allegro
DR12 -5.22 dB -23.06 dB 3:44 08-String Quartet in A Major, Op. 3: II. Larghetto
DR13 -2.65 dB -19.41 dB 3:09 09-String Quartet in A Major, Op. 3: III. Presto
DR14 -2.11 dB -20.44 dB 3:39 13-String Quartet in G Major, posth.: I. Allegro con spirito
DR14 -1.49 dB -21.61 dB 3:01 14-String Quartet in G Major, posth.: II. Minuetto
DR14 -0.59 dB -18.44 dB 1:58 15-String Quartet in G Major, posth.: III. Presto assai
DR12 -0.64 dB -17.59 dB 3:33 01-Quintet No. 1 in B-Flat Major: I. Allegro
DR13 -2.34 dB -20.84 dB 3:50 02-Quintet No. 1 in B-Flat Major: II. Larghetto
DR15 -1.88 dB -20.96 dB 4:52 03-Quintet No. 1 in B-Flat Major: III. Tempo di Minuetto
DR13 -1.15 dB -18.64 dB 3:55 10-Quintet No. 2 in D Major: I. Vivace
DR12 -2.09 dB -18.13 dB 4:45 11-Quintet No. 2 in D Major: II. Largo
DR12 -2.67 dB -17.80 dB 3:20 12-Quintet No. 2 in D Major: III. Rondo. Allegretto con espressione
DR14 -0.64 dB -18.55 dB 3:12 16-Quintet No. 3 in F Major: I. Allegro
DR13 -4.00 dB -21.93 dB 3:11 17-Quintet No. 3 in F Major: II. Larghetto
DR12 -1.22 dB -18.55 dB 2:04 18-Quintet No. 3 in F Major: III. Presto
––––––––––––––––––––––––––––––––––––––––

Number of tracks: 18
Official DR value: DR13

Samplerate: 96000 Hz
Channels: 2
Bits per sample: 24
Bitrate: 2579 kbps
Codec: FLAC
================================================================================


Thanks to the Original customer!