Marcos Magalhães, Os Musicos do Tejo - Avondano: Il mondo della luna (Excerpts) (2020) [Official Digital Download 24/48]

Posted By: delpotro
Marcos Magalhães, Os Musicos do Tejo - Avondano: Il mondo della luna (Excerpts) (2020) [Official Digital Download 24/48]

Fernando Guimarães, Luis Rodrigues, Carla Simões, Os Músicos do Tejo & Marcos Magalhães - Avondano: Il mondo della luna (Excerpts) (2020)
FLAC (tracks) 24-bit/48 kHz | Front Cover & Digital Booklet | Time - 137:11 minutes | 1,48 GB
Classical, Opera | Label: Naxos Records, Official Digital Download

Born in Lisbon of Italian parentage, Pedro António Avondano was employed at the court of Joseph I, becoming Portugal’s leading composer of instrumental music and dances for the royal ballet. Il mondo della luna (‘The World on the Moon’) was a hugely successful libretto by Carlo Goldoni and was set by the likes of Haydn—its comic tale seeing the social climber and strict moralist Buona Fede duped into thinking that he is on the moon. This narrative of illusion in collision with love, jealousy and power struggles is set with sublime lyrical and dramatic transparency by Avondano in this, his only opera.

Tracklist:
Disc 1 (56:28)
1. Os Músicos do Tejo & Marcos Magalhães – Il mondo della luna (Excerpts): Sinfonia. Allegro assai (02:01)
2. Os Músicos do Tejo & Marcos Magalhães – Il mondo della luna (Excerpts): Sinfonia. Andante [1] (02:11)
3. Os Músicos do Tejo & Marcos Magalhães – Il mondo della luna (Excerpts): Sinfonia. Allegro (00:21)
4. Os Músicos do Tejo & Marcos Magalhães – Il mondo della luna (Excerpts): Sinfonia. Presto (00:45)
5. Arthur Filemon, Rodrigo Carreto, Carlos Monteiro, Rui Borras, Os Músicos do Tejo & Marcos Magalhães – Il mondo della luna (Excerpts): Prendiamo, fratelli, il gran telescopio (01:58)
6. Fernando Guimarães, Luis Rodrigues, Os Músicos do Tejo & Marcos Magalhães – Il mondo della luna (Excerpts): Oh le gran belle cose (03:49)
7. Fernando Guimarães, Luis Rodrigues, Arthur Filemon, Rodrigo Carreto, Carlos Monteiro, Rui Borras, Os Músicos do Tejo & Marcos Magalhães – Il mondo della luna (Excerpts): Felice e fortunato chi è amico della Luna (01:55)
8. Fernando Guimarães, Luis Rodrigues, Os Músicos do Tejo & Marcos Magalhães – Il mondo della luna (Excerpts): Olà, Claudio, Pasquino (00:43)
9. Luis Rodrigues, Os Músicos do Tejo & Marcos Magalhães – Il mondo della luna (Excerpts): Ho veduto una ragazza un vecchieto innamorare (01:06)
10. Fernando Guimarães, Luis Rodrigues, Os Músicos do Tejo & Marcos Magalhães – Il mondo della luna (Excerpts): Se una ragazza fa carezze a un vecchio (00:27)
11. Luis Rodrigues, Os Músicos do Tejo & Marcos Magalhães – Il mondo della luna (Excerpts): Ho veduto un bon marito bastonar la propria moglie (01:11)
12. Fernando Guimarães, Luis Rodrigues, Os Músicos do Tejo & Marcos Magalhães – Il mondo della luna (Excerpts): Volesse il Ciel che quanto fintamente ha mirato (00:32)
13. Luis Rodrigues, Os Músicos do Tejo & Marcos Magalhães – Il mondo della luna (Excerpts): Ho veduto dall'amante per il naso esser menata (01:16)
14. Fernando Guimarães, Luis Rodrigues, Os Músicos do Tejo & Marcos Magalhães – Il mondo della luna (Excerpts): Caro Signor Ecclitico, ho veduto gran cose (00:15)
15. Luis Rodrigues, Os Músicos do Tejo & Marcos Magalhães – Il mondo della luna (Excerpts): La ragazza col vecchione, viva, viva (03:42)
16. Fernando Guimarães, Joao Pedro Cabral, Joao Fernandes, Os Músicos do Tejo & Marcos Magalhães – Il mondo della luna (Excerpts): Io la caccia non fo alle sue monete (02:02)
17. Fernando Guimarães, Os Músicos do Tejo & Marcos Magalhães – Il mondo della luna (Excerpts): Un poco di denaro e di giudizio (03:14)
18. Susana Gaspar, Carla Caramujo, Os Músicos do Tejo & Marcos Magalhães – Il mondo della luna (Excerpts): Eh venite, germana (01:43)
19. Carla Caramujo, Os Músicos do Tejo & Marcos Magalhães – Il mondo della luna (Excerpts): Ragion nell'alma siede regina de pensieri (04:11)
20. Luis Rodrigues, Susana Gaspar, Os Músicos do Tejo & Marcos Magalhães – Il mondo della luna (Excerpts): Brava, Signora figlia (00:51)
21. Susana Gaspar, Os Músicos do Tejo & Marcos Magalhães – Il mondo della luna (Excerpts): Son fanciulla da marito (03:46)
22. Luis Rodrigues, Carla Simões, Os Músicos do Tejo & Marcos Magalhães – Il mondo della luna (Excerpts): Se mandarla potessi nel mondo della Luna (02:30)
23. Carla Simões, Os Músicos do Tejo & Marcos Magalhães – Il mondo della luna (Excerpts): Una donna come me, non vi fu, né vi sarà (03:42)
24. Fernando Guimarães, Luis Rodrigues, Os Músicos do Tejo & Marcos Magalhães – Il mondo della luna (Excerpts): Ehi, Signor Buona Fede, si può entrar? (05:16)
25. Fernando Guimarães, Luis Rodrigues, Susana Gaspar, Carla Simões, Os Músicos do Tejo & Marcos Magalhães – Il mondo della luna (Excerpts): Vado, volo (07:01)

Disc 2 (01:20:10)
1. Fernando Guimarães, Luis Rodrigues, Os Músicos do Tejo & Marcos Magalhães – Il mondo della luna (Excerpts): Buona Fede ancor dorme (01:57)
2. Os Músicos do Tejo & Marcos Magalhães – Il mondo della luna (Excerpts): Sinfonia. Andante assai (01:05)
3. Fernando Guimarães, Luis Rodrigues, Os Músicos do Tejo & Marcos Magalhães – Il mondo della luna (Excerpts): Bravi, bravissimi (00:42)
4. Fernando Guimarães, Luis Rodrigues, Arthur Filemon, Rodrigo Carreto, Carlos Monteiro, Rui Borras, Os Músicos do Tejo & Marcos Magalhães – Il mondo della luna (Excerpts): Uomo felice cui goder lice di questo mondo l'alta beltà (02:11)
5. Fernando Guimarães, Luis Rodrigues, Os Músicos do Tejo & Marcos Magalhães – Il mondo della luna (Excerpts): Come avró a contenermi? (00:19)
6. Os Músicos do Tejo & Marcos Magalhães – Il mondo della luna (Excerpts): Sinfonia. Moderato (01:09)
7. Luis Rodrigues, Joao Pedro Cabral, Joao Fernandes, Os Músicos do Tejo & Marcos Magalhães – Il mondo della luna (Excerpts): Umilmente m'inchino a vostra Maestà (03:45)
8. Joao Fernandes, Os Músicos do Tejo & Marcos Magalhães – Il mondo della luna (Excerpts): Un avaro suda e pena, e poi crepa e se ne va (04:15)
9. Luis Rodrigues, Joao Pedro Cabral, Os Músicos do Tejo & Marcos Magalhães – Il mondo della luna (Excerpts): Voi avete due figlie? (00:31)
10. Joao Pedro Cabral, Os Músicos do Tejo & Marcos Magalhães – Il mondo della luna (Excerpts): Qualche volta non fa male il contrasto ed il rigore (03:57)
11. Luis Rodrigues, Arthur Filemon, Rodrigo Carreto, Carlos Monteiro, Rui Borras, Os Músicos do Tejo & Marcos Magalhães – Il mondo della luna (Excerpts): Oh che mondo felice! Oh che bel mondo! (01:23)
12. Luis Rodrigues, Os Músicos do Tejo & Marcos Magalhães – Il mondo della luna (Excerpts): Che mondo amabile, che impareggiabile felicità! (04:51)
13. Fernando Guimarães, Luis Rodrigues, Carla Simões, Os Músicos do Tejo & Marcos Magalhães – Il mondo della luna (Excerpts): Dove mi conducete, siete sbirri, sicari, o ladri siete? (03:19)
14. Luis Rodrigues, Carla Simões, Os Músicos do Tejo & Marcos Magalhães – Il mondo della luna (Excerpts): Padroncino caro, caro padroncino (04:42)
15. Luis Rodrigues, Joao Fernandes, Carla Simões, Os Músicos do Tejo & Marcos Magalhães – Il mondo della luna (Excerpts): Olà, presto fermate Buona Fede, e Lisetta (01:36)
16. Os Músicos do Tejo & Marcos Magalhães – Il mondo della luna (Excerpts): Sinfonia. Andante [2] (01:30)
17. Fernando Guimarães, Luis Rodrigues, Joao Pedro Cabral, Joao Fernandes, Susana Gaspar, Carla Caramujo, Os Músicos do Tejo & Marcos Magalhães – Il mondo della luna (Excerpts): Figlie, mie care figlie, siate le ben venute (02:29)
18. Susana Gaspar, Os Músicos do Tejo & Marcos Magalhães – Il mondo della luna (Excerpts): Quanta gente che sospira di veder cos'è la Luna (04:41)
19. Luis Rodrigues, Joao Fernandes, Carla Simões, Os Músicos do Tejo & Marcos Magalhães – Il mondo della luna (Excerpts): Ed io son stata qui con poca conclusione, come una Imperatrice di cartone (00:44)
20. Fernando Guimarães, Luis Rodrigues, Joao Fernandes, Carla Simões, Os Músicos do Tejo & Marcos Magalhães – Il mondo della luna (Excerpts): Mia Principessa, mia Monarchessa, tutto vi dono, tutto, lo scettro e il cor (06:09)
21. Carla Simões, Os Músicos do Tejo & Marcos Magalhães – Il mondo della luna (Excerpts): Olà, paggi, e staffieri, camerieri (02:29)
22. Susana Gaspar, Carla Caramujo, Carla Simões, Os Músicos do Tejo & Marcos Magalhães – Il mondo della luna (Excerpts): Divertiamoci un poco (01:44)
23. Carla Caramujo, Os Músicos do Tejo & Marcos Magalhães – Il mondo della luna (Excerpts): Ah, pur troppo il nostro core (04:45)
24. Carla Simões, Os Músicos do Tejo & Marcos Magalhães – Il mondo della luna (Excerpts): Oh guardate, garbata signorina! (00:47)
25. Sarla Simões, Os Músicos do Tejo & Marcos Magalhães – Il mondo della luna (Excerpts): Quando si trovano le basse femmine (02:35)
26. Joao Pedro Cabral, Joao Fernandes, Carla Caramujo, Os Músicos do Tejo & Marcos Magalhães – Il mondo della luna (Excerpts): Sposa, venite in trono (01:02)
27. Joao Pedro Cabral, Carla Caramujo, Os Músicos do Tejo & Marcos Magalhães – Il mondo della luna (Excerpts): Cara ti stringo al seno (02:44)
28. Fernando Guimarães, Luis Rodrigues, Joao Fernandes, Susana Gaspar, Os Músicos do Tejo & Marcos Magalhães – Il mondo della luna (Excerpts): Oh figlia, oh sangue mio, nel vederti gioir, giubilo anch'io (00:44)
29. Fernando Guimarães, Susana Gaspar, Os Músicos do Tejo & Marcos Magalhães – Il mondo della luna (Excerpts): Sposina mia cara, mia cara sposina (03:43)
30. Luis Rodrigues, Joao Fernandes, Os Músicos do Tejo & Marcos Magalhães – Il mondo della luna (Excerpts): Cara la mia figliuola, il vederti contenta mi consola (00:53)
31. Luis Rodrigues, Os Músicos do Tejo & Marcos Magalhães – Il mondo della luna (Excerpts): Qua la mano, Io v'unisco in matrimonio (02:30)
32. Fernando Guimarães, Luis Rodrigues, Joao Pedro Cabral, Joao Fernandes, Os Músicos do Tejo & Marcos Magalhães – Il mondo della luna (Excerpts): Orsù tutto è finito (00:43)
33. Fernando Guimarães, Luis Rodrigues, Joao Pedro Cabral, Joao Fernandes, Susana Gaspar, Carla Caramujo, Carla Simões, Os Músicos do Tejo & Marcos Magalhães – Il mondo della luna (Excerpts): Buona Fede tondo come il cerchio della Luna (04:16)

foobar2000 1.4.1 / Dynamic Range Meter 1.1.1
log date: 2020-10-18 20:18:08

––––––––––––––––––––––––––––––––––––––––
Analyzed: Guimarães, Rodrigues, Cabral, Fernandes, Gaspar, Caramuji, Simões, Os Músicos do Tejo & Marcos Magalhães / Avondano - Il mondo della luna (Excerpts)
––––––––––––––––––––––––––––––––––––––––

DR Peak RMS Duration Track
––––––––––––––––––––––––––––––––––––––––
DR11 -4.61 dB -19.52 dB 2:02 01-Il mondo della luna (Excerpts): Sinfonia. Allegro assai
DR12 -7.13 dB -25.71 dB 2:12 02-Il mondo della luna (Excerpts): Sinfonia. Andante [1]
DR8 -3.91 dB -19.15 dB 0:22 03-Il mondo della luna (Excerpts): Sinfonia. Allegro
DR11 -2.95 dB -18.07 dB 0:46 04-Il mondo della luna (Excerpts): Sinfonia. Presto
DR11 -3.66 dB -18.35 dB 1:59 05-Il mondo della luna (Excerpts): Prendiamo, fratelli, il gran telescopio
DR15 -6.03 dB -26.00 dB 3:49 06-Il mondo della luna (Excerpts): Oh le gran belle cose
DR11 -3.12 dB -17.90 dB 1:55 07-Il mondo della luna (Excerpts): Felice e fortunato chi è amico della Luna
DR13 -5.37 dB -24.14 dB 0:44 08-Il mondo della luna (Excerpts): Olà, Claudio, Pasquino
DR11 -4.25 dB -18.39 dB 1:07 09-Il mondo della luna (Excerpts): Ho veduto una ragazza un vecchieto innamorare
DR13 -5.84 dB -23.13 dB 0:27 10-Il mondo della luna (Excerpts): Se una ragazza fa carezze a un vecchio
DR11 -3.33 dB -17.03 dB 1:11 11-Il mondo della luna (Excerpts): Ho veduto un bon marito bastonar la propria moglie
DR14 -7.74 dB -24.86 dB 0:33 12-Il mondo della luna (Excerpts): Volesse il Ciel che quanto fintamente ha mirato
DR11 -5.21 dB -19.53 dB 1:17 13-Il mondo della luna (Excerpts): Ho veduto dall'amante per il naso esser menata
DR13 -7.42 dB -24.06 dB 0:15 14-Il mondo della luna (Excerpts): Caro Signor Ecclitico, ho veduto gran cose
DR12 -3.68 dB -18.77 dB 3:43 15-Il mondo della luna (Excerpts): La ragazza col vecchione, viva, viva
DR14 -3.55 dB -23.43 dB 2:03 16-Il mondo della luna (Excerpts): Io la caccia non fo alle sue monete
DR12 -5.09 dB -20.70 dB 3:15 17-Il mondo della luna (Excerpts): Un poco di denaro e di giudizio
DR15 -6.41 dB -26.44 dB 1:43 18-Il mondo della luna (Excerpts): Eh venite, germana
DR12 -4.07 dB -20.72 dB 4:12 19-Il mondo della luna (Excerpts): Ragion nell'alma siede regina de pensieri
DR13 -5.49 dB -23.93 dB 0:52 20-Il mondo della luna (Excerpts): Brava, Signora figlia
DR12 -4.10 dB -18.57 dB 3:47 21-Il mondo della luna (Excerpts): Son fanciulla da marito
DR17 -3.79 dB -25.71 dB 2:31 22-Il mondo della luna (Excerpts): Se mandarla potessi nel mondo della Luna
DR12 -2.49 dB -20.45 dB 3:43 23-Il mondo della luna (Excerpts): Una donna come me, non vi fu, né vi sarà
DR14 -5.63 dB -24.34 dB 5:17 24-Il mondo della luna (Excerpts): Ehi, Signor Buona Fede, si può entrar?
DR12 -3.36 dB -19.35 dB 7:01 25-Il mondo della luna (Excerpts): Vado, volo
DR14 -7.68 dB -28.03 dB 1:58 26-Il mondo della luna (Excerpts): Buona Fede ancor dorme
DR11 -6.50 dB -22.12 dB 1:06 27-Il mondo della luna (Excerpts): Sinfonia. Andante assai
DR14 -9.94 dB -29.51 dB 0:42 28-Il mondo della luna (Excerpts): Bravi, bravissimi
DR11 -3.74 dB -18.46 dB 2:11 29-Il mondo della luna (Excerpts): Uomo felice cui goder lice di questo mondo l'alta beltà
DR13 -8.92 dB -26.08 dB 0:20 30-Il mondo della luna (Excerpts): Come avró a contenermi?
DR11 -4.53 dB -19.31 dB 1:10 31-Il mondo della luna (Excerpts): Sinfonia. Moderato
DR14 -4.06 dB -22.47 dB 3:45 32-Il mondo della luna (Excerpts): Umilmente m'inchino a vostra Maestà
DR13 -3.37 dB -20.74 dB 4:16 33-Il mondo della luna (Excerpts): Un avaro suda e pena, e poi crepa e se ne va
DR9 -7.39 dB -23.48 dB 0:31 34-Il mondo della luna (Excerpts): Voi avete due figlie?
DR12 -5.31 dB -20.13 dB 3:57 35-Il mondo della luna (Excerpts): Qualche volta non fa male il contrasto ed il rigore
DR12 -6.64 dB -23.43 dB 1:24 36-Il mondo della luna (Excerpts): Oh che mondo felice! Oh che bel mondo!
DR13 -5.05 dB -21.54 dB 4:51 37-Il mondo della luna (Excerpts): Che mondo amabile, che impareggiabile felicità!
DR15 -7.03 dB -25.94 dB 3:20 38-Il mondo della luna (Excerpts): Dove mi conducete, siete sbirri, sicari, o ladri siete?
DR13 -4.52 dB -20.37 dB 4:42 39-Il mondo della luna (Excerpts): Padroncino caro, caro padroncino
DR17 -2.32 dB -23.75 dB 1:37 40-Il mondo della luna (Excerpts): Olà, presto fermate Buona Fede, e Lisetta
DR12 -5.25 dB -21.18 dB 1:30 41-Il mondo della luna (Excerpts): Sinfonia. Andante [2]
DR12 -4.52 dB -21.69 dB 2:30 42-Il mondo della luna (Excerpts): Figlie, mie care figlie, siate le ben venute
DR12 -4.53 dB -20.99 dB 4:42 43-Il mondo della luna (Excerpts): Quanta gente che sospira di veder cos'è la Luna
DR12 -2.06 dB -21.65 dB 0:45 44-Il mondo della luna (Excerpts): Ed io son stata qui con poca conclusione, come una Imperatrice di cartone
DR12 -4.34 dB -18.98 dB 6:10 45-Il mondo della luna (Excerpts): Mia Principessa, mia Monarchessa, tutto vi dono, tutto, lo scettro e il cor
DR13 -4.63 dB -22.34 dB 2:30 46-Il mondo della luna (Excerpts): Olà, paggi, e staffieri, camerieri
DR15 -3.00 dB -23.90 dB 1:45 47-Il mondo della luna (Excerpts): Divertiamoci un poco
DR13 -5.06 dB -22.00 dB 4:45 48-Il mondo della luna (Excerpts): Ah, pur troppo il nostro core
DR14 -5.52 dB -22.64 dB 0:47 49-Il mondo della luna (Excerpts): Oh guardate, garbata signorina!
DR14 -5.07 dB -23.38 dB 2:36 50-Il mondo della luna (Excerpts): Quando si trovano le basse femmine
DR14 -7.06 dB -25.26 dB 1:02 51-Il mondo della luna (Excerpts): Sposa, venite in trono
DR11 -5.16 dB -19.45 dB 2:45 52-Il mondo della luna (Excerpts): Cara ti stringo al seno
DR13 -7.99 dB -25.21 dB 0:45 53-Il mondo della luna (Excerpts): Oh figlia, oh sangue mio, nel vederti gioir, giubilo anch'io
DR12 -5.54 dB -21.42 dB 3:43 54-Il mondo della luna (Excerpts): Sposina mia cara, mia cara sposina
DR13 -5.75 dB -23.09 dB 0:53 55-Il mondo della luna (Excerpts): Cara la mia figliuola, il vederti contenta mi consola
DR11 -1.88 dB -17.52 dB 2:30 56-Il mondo della luna (Excerpts): Qua la mano, Io v'unisco in matrimonio
DR13 -7.33 dB -24.57 dB 0:44 57-Il mondo della luna (Excerpts): Orsù tutto è finito
DR12 -3.23 dB -18.33 dB 4:16 58-Il mondo della luna (Excerpts): Buona Fede tondo come il cerchio della Luna
––––––––––––––––––––––––––––––––––––––––

Number of tracks: 58
Official DR value: DR13

Samplerate: 48000 Hz
Channels: 2
Bits per sample: 24
Bitrate: 1615 kbps
Codec: FLAC
================================================================================


Thanks to the Original customer!