Lyn Stanley - Potions: From The 50's (2014) PS3 ISO + Hi-Res FLAC

Posted By: HDAtall
Lyn Stanley - Potions: From The 50's (2014) PS3 ISO + Hi-Res FLAC

Lyn Stanley - Potions: From The 50's (2014)
PS3 Rip | SACD ISO | DSD64 2.0 > 1-bit/2.8224 MHz | 59:45 minutes | Scans included | 1,74 GB
or FLAC(converted with foobar2000 to tracks) 24bit/96 kHz | Full Scans included | 1,35 GB

This album is a tribute to selected composers in the 1950s who wrote Jazz and Pop tunes and has pre-sold 1000 albums. Produced by Kenny Werner and recorded by Al Schmitt at Capitol Recording Studios in Hollywood and Avatar Studios in NYC, the album offers some of the finest jazz musicians on both East and West coasts supporting Lyn Stanley's captivating voice that is unique, haunting and mesmerizing.

Tracklist:

01. Lullaby of Birdland
02. Cry Me A River
03. Fly Me To The Moon
04. Hey There
05. I'm Walkin'
06. You Don't Know Me
07. In The Still Of The Night
08. The Thrill Is Gone
09. A Summer Place
10. Love Potion #9
11. Teach Me Tonight
12. After The Lights Go Down Low
13. Misty
14. The Party's Over
15. The Man I Love

Produced by Kenny Werner. Arrangements: Kenny Werner, Steve Rawlins, Bill Cunliffe, Mike Lang & Lyn Stanley.
Recording Engineer: Al Schmitt, Capitol Records Studio. Mixing Engineer: Al Schmitt, Capitol Records Studio.
Mastered by Bernie Grundman, Bernie Grundman Mastering

Personnel
All vocals by Lyn Stanley
Piano: Kenny Werner, Mike Lang, Bill Cunliffe
Bass: Mike Valerio, Johannes WEIDENMUELLER
Drums: Joe La Barbera, Ari Hoenig, John Robinson
Soloists: Glenn Drewes (trumpet/flugelhorn), Thom Rotella (guitar), Tom Rainier (clarinet), Luis Conte (percussion) and Rickey Woodard (tenor saxophone)

foobar2000 1.4.3 / Dynamic Range Meter 1.1.1

––––––––––––––––––––––––––––––––––––––––
Analyzed: Lyn Stanley / Potions [from the 50s]
––––––––––––––––––––––––––––––––––––––––

DR Peak RMS Duration Track
––––––––––––––––––––––––––––––––––––––––
DR13 -5.81 dB -22.21 dB 3:00 01-Lullaby of Birdland
DR12 -7.73 dB -22.57 dB 4:04 02-Cry Me A River
DR13 -4.80 dB -21.77 dB 3:42 03-Fly Me To The Moon
DR14 -5.74 dB -22.34 dB 3:34 04-Hey There
DR13 -5.26 dB -21.69 dB 2:39 05-I'm Walkin'
DR13 -8.09 dB -23.73 dB 4:39 06-You Don't Know Me
DR13 -6.37 dB -23.20 dB 4:33 07-In The Still Of The Night
DR13 -6.71 dB -23.03 dB 4:43 08-The Thrill Is Gone
DR13 -6.96 dB -22.21 dB 3:37 09-A Summer Place
DR13 -6.43 dB -22.78 dB 3:33 10-Love Potion #9
DR13 -6.67 dB -23.27 dB 3:56 11-Teach Me Tonight
DR13 -7.46 dB -22.49 dB 3:24 12-After The Lights Go Down Low
DR13 -7.46 dB -24.03 dB 5:27 13-Misty
DR13 -7.71 dB -23.63 dB 2:52 14-The Party's Over
DR13 -7.54 dB -25.26 dB 6:03 15-The Man I Love
––––––––––––––––––––––––––––––––––––––––

Number of tracks: 15
Official DR value: DR13

Samplerate: 2822400 Hz / PCM Samplerate: 176400 Hz
Channels: 2
Bits per sample: 1
Bitrate: 5645 kbps
Codec: DSD64


Thanks to audioguy!
Uncompressed SACD ISO size > 2,39 GB
>