Kenny G - Live (1989) [Reissue 2015] PS3 ISO + Hi-Res FLAC

Posted By: HDAtall
Kenny G - Live (1989) [Reissue 2015] PS3 ISO + Hi-Res FLAC

Kenny G - Live (1989) [Reissue 2015]
PS3 Rip | SACD ISO | DSD64 2.0 > 1-bit/2.8224 MHz | 73:31 minutes | Front/Rear covers | 1,64 GB
or FLAC(converted with foobar2000 to tracks) 24bit/48 kHz | Front/Rear covers | 880 MB

Kenny G Live is the first live album by saxophonist Kenny G. It was released by Arista Records in 1989, and peaked at number 2 on the Contemporary Jazz Albums chart and number 16 on the Billboard 200. This album was recorded live at Humphrey's Concerts By The Bay in San Diego, California.

Kenny G's Live was only a slight improvement over 1986's Duotones and 1988's Silhouette, the knee-jerk studio recordings that made him a superstar. Released as both a two-LP set and as a single CD, Kenny G Live contains only a few decent offerings. The saxophonist actually lets loose on the funky "Midnight Motion" and the catchy "I've Been Missin' You," which he co-wrote with R&B singer Kashif for 1983's G Force. But he demonstrates how boring, corny, and toothless his playing can be on "Esther," "Home," and "Silhouette." Equally soulless are "Don't Make Me Wait for Love" (which features the very contrived pop singer Michael Bolton), and two new studio offerings, "Going Home" and "Uncle Al".

Tracklist:

01. Going Home
02. Sade
03. Silhouette
04. Midnight Motion
05. Home
06. Don't Make Me Wait For Love
07. I've Been Missin' You
08. Esther
09. Tribeca
10. Songbird
11. Uncle Al

Personnel
Kenny G - saxophones
Robert Danford - piano
John Raymond - guitar
Vail Johnson - bass
Bruce Carter - drums
Walter Afanasieff - keyboards, multi-instruments
Michael Bolton - lead vocals on "6"

foobar2000 1.4 / Dynamic Range Meter 1.1.1


––––––––––––––––––––––––––––––––––––––––
Analyzed: KENNY G. / LIVE
––––––––––––––––––––––––––––––––––––––––

DR Peak RMS Duration Track
––––––––––––––––––––––––––––––––––––––––
DR13 -7.03 dB -24.29 dB 5:32 01-Going Home
DR15 -5.67 dB -24.29 dB 5:48 02-Sade
DR16 -5.78 dB -26.66 dB 9:12 03-Silhouette
DR15 -7.32 dB -25.65 dB 8:24 04-Midnight Motion
DR16 -5.95 dB -27.06 dB 5:16 05-Home
DR14 -7.56 dB -24.88 dB 7:14 06-Don't Make Me Wait For Love
DR16 -5.70 dB -24.83 dB 4:18 07-I've Been Missin' You
DR15 -8.45 dB -27.38 dB 5:39 08-Esther
DR17 -6.56 dB -25.66 dB 6:46 09-Tribeca
DR16 -5.49 dB -26.08 dB 10:38 10-Songbird
DR14 -9.75 dB -26.18 dB 4:43 11-Uncle Al
––––––––––––––––––––––––––––––––––––––––

Number of tracks: 11
Official DR value: DR15

Samplerate: 2822400 Hz / PCM Samplerate: 176400 Hz
Channels: 2
Bits per sample: 1
Bitrate: 5645 kbps
Codec: DSD64


Uncompressed SACD ISO size > 2,94 GB
>