Joe Henderson - Mode For Joe (1966/2013) [Official Digital Download 24bit/192kHz]

Posted By: HDV
Joe Henderson - Mode For Joe (1966/2013) [Official Digital Download 24bit/192kHz]

Joe Henderson - Mode For Joe (1966/2013)
FLAC (tracks) 24 bit/192 kHz | Time - 42:49 minutes | 1,74 GB
Studio Master, Official Digital Download | Artwork: Digital Booklet

"Mode For Joe" is the influential saxophonist’s 1966 gem. It was his final Blue Note studio recording as a bandleader. Henderson is joined by trumpeter Lee Morgan, trombonist Curtis Fuller, vibraphonist Bobby Hutcherson, pianist Cedar Walton, double bassist Ron Carter and drummer Joe Chambers. The challenging repertoire showcases the unmatched talents of the ensemble. It features the standouts “Mode For Joe” and “Caribbean Fire Dance”.

Tenor saxophonist Joe Henderson's fifth and final early Blue Note album is his only one with a group larger than a quintet. Henderson welcomes quite an all-star band (trumpeter Lee Morgan, trombonist Curtis Fuller, vibraphonist Bobby Hutcherson, pianist Cedar Walton, bassist Ron Carter and drummer Joe Chambers) and together they perform originals by Henderson (including "A Shade of Jade"), Walton and Morgan ("Free Wheelin'"). The advanced music has plenty of exciting moments and all of the young talents play up to the level one could hope for.

Tracklist:

01 - A Shade Of Jade
02 - Mode For Joe
03 - Black
04 - Caribbean Fire Dance
05 - Granted
06 - Free Wheelin'

Produced by Alfred Lion. Engineered by Rudy Van Gelder.
Recorded on January 27, 1966 at Van Gelder Studio, Englewood Cliffs, NJ.

Musicians:
Joe Henderson – tenor sax
Lee Morgan – trumpet
Curtis Fuller – trombone
Bobby Hutcherson – vibes
Cedar Walton – piano
Ron Carter – bass
Joe Chambers - drums

Analyzed: Joe Henderson / Mode For Joe
––––––––––––––––––––––––––––––––––––––––

DR Peak RMS Duration Track
––––––––––––––––––––––––––––––––––––––––
DR11 -0.09 dB -15.57 dB 7:08 01-A Shade Of Jade
DR13 -1.70 dB -19.67 dB 8:04 02-Mode For Joe
DR12 -0.52 dB -17.10 dB 6:55 03-Black
DR12 0.00 dB -15.73 dB 6:42 04-Caribbean Fire Dance
DR14 0.00 dB -17.65 dB 7:21 05-Granted
DR13 -1.11 dB -17.80 dB 6:39 06-Free Wheelin'
––––––––––––––––––––––––––––––––––––––––

Number of tracks: 6
Official DR value: DR13

Samplerate: 192000 Hz
Channels: 2
Bits per sample: 24
Bitrate: 5477 kbps
Codec: FLAC
================================================================================


Thanks to the Original customer!