Jill Scott - Woman (2015) [Official Digital Download]

Posted By: HDV
Jill Scott - Woman (2015) [Official Digital Download]

Jill Scott - Woman (2015)
FLAC (tracks) 24-bit/44,1 kHz | Time - 57:49 minutes | 668 MB
Studio Master, Official Digital Download | Artwork: Front cover

Woman is three-time GRAMMY award-winning singer-songwriter Jill Scott's fifth studio album. The thought provoking titled album is coming off the heels of Jill’s latest singles, “Fool’s Gold” that debuted on May 11th and is currently #7 on Billboard R&B charts and the critically acclaimed, “You Don’t Know”. Executive produced by the vocal powerhouse herself alongside producer extraordinaire Andre Harris (“Long Walk Home” & “Is It The Way”) and Nashville great Aaron Pearce, Jill is describing the sound of this album as “classic Philly soul meets Country rhythm served with impeccable and captivating storytelling”.

After the 2011 album The Light of the Sun, Jill Scott advanced her acting career with roles in Steel Magnolias, Baggage Claim, and With This Ring. She also transferred her Blues Babe label from Warner Bros. to Atlantic and worked on her fifth proper studio album. A month ahead of its release, just after the second single reached the public, Hidden Beach just happened to issue Golden Moments, a compilation of highlights from Scott's "Words and Sounds" era. Should there be a second Jill Scott anthology, several cuts from Woman would make for obvious selections. The early singles – a wailing update of Jerry Ragovoy's deep gospel-soul composition "You Don't Know Nothing About Love" and the relaxed breakbeat-propelled resignation of "Fool's Gold" – are among the high points. Third single "Closure," produced by David Banner and Andre "Dre" Harris with references to Curtis Mayfield and Larry Graham, is among Scott's funkiest and funniest songs. The way she dismisses a lover – she addresses him like a pet – should be as remembered as any given line from "Gettin' in the Way." Other standouts are the result of smart pairings with younger talent. For the tranquil ballads "Lighthouse" and "Cruisin'," Scott teams up with fellow Philadelphian Andrew Wansel, the son of Dexter Wansel, while the 9th Wonder-produced "Beautiful Love," full of snaking keyboard lines, is a duet with BJ the Chicago Kid, too fine to be placed last on an hourlong album. Woman is so varied that it resembles a compilation itself, albeit one that's scattered in both sound and quality. More than any other Jill Scott album – each one is either nearly or well over an hour in length – its impact would likely deepen with some trimming and resequencing. Nonetheless, there's enough high-quality content to sustain Scott's status as one of the most unique and powerful voices in R&B.

Tracklist:

01 - Wild Cookie
02 - Prepared
03 - Run Run Run
04 - Can't Wait
05 - Lighthouse
06 - Fool's Gold
07 - Willing (Interlude)
08 - Closure
09 - You Don't Know
10 - Pause (Interlude)
11 - Cruisin
12 - Say Thank You
13 - Back Together
14 - Coming To You
15 - Jahraymecofasola
16 - Beautiful Love [feat. BJ The Chicago Kid]

Analyzed: Jill Scott / Woman
––––––––––––––––––––––––––––––––––––––––

DR Peak RMS Duration Track
––––––––––––––––––––––––––––––––––––––––
DR8 -1.43 dB -10.47 dB 1:49 01-Wild Cookie
DR10 -0.20 dB -12.28 dB 5:18 02-Prepared
DR6 -0.20 dB -8.51 dB 2:27 03-Run Run Run
DR6 -0.20 dB -8.78 dB 4:32 04-Can't Wait
DR8 -1.00 dB -11.05 dB 5:59 05-Lighthouse
DR7 -0.20 dB -8.62 dB 3:25 06-Fool's Gold
DR7 -0.20 dB -7.86 dB 1:17 07-Willing (Interlude)
DR6 -0.20 dB -8.70 dB 3:17 08-Closure
DR7 -0.67 dB -9.54 dB 3:49 09-You Don't Know
DR10 -0.62 dB -13.91 dB 1:24 10-Pause (Interlude)
DR8 -0.20 dB -9.43 dB 3:55 11-Cruisin
DR7 -0.20 dB -9.21 dB 4:27 12-Say Thank You
DR9 -0.20 dB -12.15 dB 4:09 13-Back Together
DR7 -0.20 dB -8.37 dB 3:40 14-Coming To You
DR8 -1.00 dB -11.99 dB 4:41 15-Jahraymecofasola
DR7 -0.94 dB -9.21 dB 3:40 16-Beautiful Love (feat. BJ The Chicago Kid)
––––––––––––––––––––––––––––––––––––––––

Number of tracks: 16
Official DR value: DR8

Samplerate: 44100 Hz
Channels: 2
Bits per sample: 24
Bitrate: 1523 kbps
Codec: FLAC
================================================================================


Thanks to Original customer!